  0
SECTION
  2
HEADER
  9
$ACADVER
  1
AC1015
  9
$ACADMAINTVER
 70
     6
  9
$DWGCODEPAGE
  3
DOS932
  9
$INSBASE
 10
0.0
 20
0.0
 30
0.0
  9
$EXTMIN
 10
0.0
 20
0.0
 30
0.0
  9
$EXTMAX
 10
594.0
 20
420.0
 30
0.0
  9
$LIMMIN
 10
0.0
 20
0.0
  9
$LIMMAX
 10
594.0
 20
420.0
  9
$ORTHOMODE
 70
     0
  9
$REGENMODE
 70
     1
  9
$FILLMODE
 70
     1
  9
$QTEXTMODE
 70
     0
  9
$MIRRTEXT
 70
     1
  9
$LTSCALE
 40
1.0
  9
$ATTMODE
 70
     1
  9
$TEXTSIZE
 40
3.5
  9
$TRACEWID
 40
1.0
  9
$TEXTSTYLE
  7
Standard
  9
$CLAYER
  8
0
  9
$CELTYPE
  6
ByLayer
  9
$CECOLOR
 62
   256
  9
$CELTSCALE
 40
1.0
  9
$DISPSILH
 70
     0
  9
$DIMSCALE
 40
1.0
  9
$DIMASZ
 40
3.0
  9
$DIMEXO
 40
1.0
  9
$DIMDLI
 40
3.75
  9
$DIMRND
 40
0.0
  9
$DIMDLE
 40
0.0
  9
$DIMEXE
 40
1.0
  9
$DIMTP
 40
0.0
  9
$DIMTM
 40
0.0
  9
$DIMTXT
 40
3.5
  9
$DIMCEN
 40
2.5
  9
$DIMTSZ
 40
0.0
  9
$DIMTOL
 70
     0
  9
$DIMLIM
 70
     0
  9
$DIMTIH
 70
     1
  9
$DIMTOH
 70
     1
  9
$DIMSE1
 70
     0
  9
$DIMSE2
 70
     0
  9
$DIMTAD
 70
     1
  9
$DIMZIN
 70
     0
  9
$DIMBLK
  1

  9
$DIMASO
 70
     1
  9
$DIMSHO
 70
     1
  9
$DIMPOST
  1

  9
$DIMAPOST
  1

  9
$DIMALT
 70
     0
  9
$DIMALTD
 70
     3
  9
$DIMALTF
 40
0.0393700787
  9
$DIMLFAC
 40
1.0
  9
$DIMTOFL
 70
     1
  9
$DIMTVP
 40
0.0
  9
$DIMTIX
 70
     0
  9
$DIMSOXD
 70
     0
  9
$DIMSAH
 70
     0
  9
$DIMBLK1
  1

  9
$DIMBLK2
  1

  9
$DIMSTYLE
  2
ISO-25
  9
$DIMCLRD
 70
     0
  9
$DIMCLRE
 70
     0
  9
$DIMCLRT
 70
     0
  9
$DIMTFAC
 40
1.0
  9
$DIMGAP
 40
1.524
  9
$DIMJUST
 70
     0
  9
$DIMSD1
 70
     0
  9
$DIMSD2
 70
     0
  9
$DIMTOLJ
 70
     0
  9
$DIMTZIN
 70
     0
  9
$DIMALTZ
 70
     0
  9
$DIMALTTZ
 70
     0
  9
$DIMUPT
 70
     0
  9
$DIMDEC
 70
     1
  9
$DIMTDEC
 70
     1
  9
$DIMALTU
 70
     2
  9
$DIMALTTD
 70
     3
  9
$DIMTXSTY
  7
Standard
  9
$DIMAUNIT
 70
     0
  9
$DIMADEC
 70
     2
  9
$DIMALTRND
 40
0.0
  9
$DIMAZIN
 70
     0
  9
$DIMDSEP
 70
    44
  9
$DIMATFIT
 70
     3
  9
$DIMFRAC
 70
     0
  9
$DIMLDRBLK
  1

  9
$DIMLUNIT
 70
     2
  9
$DIMLWD
 70
    -2
  9
$DIMLWE
 70
    -2
  9
$DIMTMOVE
 70
     0
  9
$LUNITS
 70
     2
  9
$LUPREC
 70
     1
  9
$SKETCHINC
 40
1.0
  9
$FILLETRAD
 40
10.0
  9
$AUNITS
 70
     0
  9
$AUPREC
 70
     2
  9
$MENU
  1
.
  9
$ELEVATION
 40
0.0
  9
$PELEVATION
 40
0.0
  9
$THICKNESS
 40
0.0
  9
$LIMCHECK
 70
     0
  9
$CHAMFERA
 40
10.0
  9
$CHAMFERB
 40
10.0
  9
$CHAMFERC
 40
20.0
  9
$CHAMFERD
 40
0.0
  9
$SKPOLY
 70
     0
  9
$TDCREATE
 40
2456261.786491435
  9
$TDUCREATE
 40
2456261.411491435
  9
$TDUPDATE
 40
2456261.786491447
  9
$TDUUPDATE
 40
2456261.411491447
  9
$TDINDWG
 40
0.0000000116
  9
$TDUSRTIMER
 40
0.0000000116
  9
$USRTIMER
 70
     1
  9
$ANGBASE
 50
0.0
  9
$ANGDIR
 70
     0
  9
$PDMODE
 70
     0
  9
$PDSIZE
 40
-1.0
  9
$PLINEWID
 40
0.0
  9
$SPLFRAME
 70
     0
  9
$SPLINETYPE
 70
     6
  9
$SPLINESEGS
 70
     8
  9
$HANDSEED
  5
1CA
  9
$SURFTAB1
 70
     6
  9
$SURFTAB2
 70
     6
  9
$SURFTYPE
 70
     6
  9
$SURFU
 70
     6
  9
$SURFV
 70
     6
  9
$UCSBASE
  2

  9
$UCSNAME
  2

  9
$UCSORG
 10
0.0
 20
0.0
 30
0.0
  9
$UCSXDIR
 10
1.0
 20
0.0
 30
0.0
  9
$UCSYDIR
 10
0.0
 20
1.0
 30
0.0
  9
$UCSORTHOREF
  2

  9
$UCSORTHOVIEW
 70
     0
  9
$UCSORGTOP
 10
0.0
 20
0.0
 30
0.0
  9
$UCSORGBOTTOM
 10
0.0
 20
0.0
 30
0.0
  9
$UCSORGLEFT
 10
0.0
 20
0.0
 30
0.0
  9
$UCSORGRIGHT
 10
0.0
 20
0.0
 30
0.0
  9
$UCSORGFRONT
 10
0.0
 20
0.0
 30
0.0
  9
$UCSORGBACK
 10
0.0
 20
0.0
 30
0.0
  9
$PUCSBASE
  2

  9
$PUCSNAME
  2

  9
$PUCSORG
 10
0.0
 20
0.0
 30
0.0
  9
$PUCSXDIR
 10
1.0
 20
0.0
 30
0.0
  9
$PUCSYDIR
 10
0.0
 20
1.0
 30
0.0
  9
$PUCSORTHOREF
  2

  9
$PUCSORTHOVIEW
 70
     0
  9
$PUCSORGTOP
 10
0.0
 20
0.0
 30
0.0
  9
$PUCSORGBOTTOM
 10
0.0
 20
0.0
 30
0.0
  9
$PUCSORGLEFT
 10
0.0
 20
0.0
 30
0.0
  9
$PUCSORGRIGHT
 10
0.0
 20
0.0
 30
0.0
  9
$PUCSORGFRONT
 10
0.0
 20
0.0
 30
0.0
  9
$PUCSORGBACK
 10
0.0
 20
0.0
 30
0.0
  9
$USERI1
 70
     0
  9
$USERI2
 70
     0
  9
$USERI3
 70
     0
  9
$USERI4
 70
     0
  9
$USERI5
 70
     0
  9
$USERR1
 40
0.0
  9
$USERR2
 40
0.0
  9
$USERR3
 40
0.0
  9
$USERR4
 40
0.0
  9
$USERR5
 40
0.0
  9
$WORLDVIEW
 70
     1
  9
$SHADEDGE
 70
     3
  9
$SHADEDIF
 70
    70
  9
$TILEMODE
 70
     1
  9
$MAXACTVP
 70
    64
  9
$PINSBASE
 10
0.0
 20
0.0
 30
0.0
  9
$PLIMCHECK
 70
     0
  9
$PEXTMIN
 10
1.0000000000E+20
 20
1.0000000000E+20
 30
1.0000000000E+20
  9
$PEXTMAX
 10
-1.0000000000E+20
 20
-1.0000000000E+20
 30
-1.0000000000E+20
  9
$PLIMMIN
 10
0.0
 20
0.0
  9
$PLIMMAX
 10
420.0
 20
297.0
  9
$UNITMODE
 70
     0
  9
$VISRETAIN
 70
     1
  9
$PLINEGEN
 70
     0
  9
$PSLTSCALE
 70
     1
  9
$TREEDEPTH
 70
  3020
  9
$CMLSTYLE
  2
Standard
  9
$CMLJUST
 70
     0
  9
$CMLSCALE
 40
20.0
  9
$PROXYGRAPHICS
 70
     1
  9
$MEASUREMENT
 70
     1
  9
$CELWEIGHT
370
    -1
  9
$ENDCAPS
280
     0
  9
$JOINSTYLE
280
     0
  9
$LWDISPLAY
290
     1
  9
$INSUNITS
 70
     4
  9
$HYPERLINKBASE
  1

  9
$STYLESHEET
  1

  9
$XEDIT
290
     1
  9
$CEPSNTYPE
380
     0
  9
$PSTYLEMODE
290
     1
  9
$FINGERPRINTGUID
  2
{CC0AD84F-584E-4D5E-8DA6-0B885599116D}
  9
$VERSIONGUID
  2
{FAEB1C32-E019-11D5-929B-00C0DF256EC4}
  9
$EXTNAMES
290
     1
  9
$PSVPSCALE
 40
0.0
  9
$OLESTARTUP
290
     0
  0
ENDSEC
  0
SECTION
  2
CLASSES
  0
CLASS
  1
ACDBDICTIONARYWDFLT
  2
AcDbDictionaryWithDefault
  3
ObjectDBX Classes
 90
        0
280
     0
281
     0
  0
CLASS
  1
VISUALSTYLE
  2
AcDbVisualStyle
  3
ObjectDBX Classes
 90
     4095
280
     0
281
     0
  0
CLASS
  1
MATERIAL
  2
AcDbMaterial
  3
ObjectDBX Classes
 90
     1153
280
     0
281
     0
  0
CLASS
  1
ACDBPLACEHOLDER
  2
AcDbPlaceHolder
  3
ObjectDBX Classes
 90
        0
280
     0
281
     0
  0
CLASS
  1
LAYOUT
  2
AcDbLayout
  3
ObjectDBX Classes
 90
        0
280
     0
281
     0
  0
ENDSEC
  0
SECTION
  2
TABLES
  0
TABLE
  2
VPORT
  5
8
330
0
100
AcDbSymbolTable
 70
     1
  0
VPORT
  5
29
330
8
100
AcDbSymbolTableRecord
100
AcDbViewportTableRecord
  2
*Active
 70
     0
 10
0.0
 20
0.0
 11
1.0
 21
1.0
 12
297.0
 22
210.0
 13
0.0
 23
0.0
 14
10.0
 24
10.0
 15
10.0
 25
10.0
 16
0.0
 26
0.0
 36
1.0
 17
0.0
 27
0.0
 37
0.0
 40
420.0
 41
1.4142857143
 42
50.0
 43
0.0
 44
0.0
 50
0.0
 51
0.0
 71
     0
 72
  2000
 73
     1
 74
     3
 75
     0
 76
     0
 77
     0
 78
     0
281
     0
 65
     1
110
0.0
120
0.0
130
0.0
111
1.0
121
0.0
131
0.0
112
0.0
122
1.0
132
0.0
 79
     0
146
0.0
  0
ENDTAB
  0
TABLE
  2
LTYPE
  5
5
330
0
100
AcDbSymbolTable
 70
     6
  0
LTYPE
  5
14
330
5
100
AcDbSymbolTableRecord
100
AcDbLinetypeTableRecord
  2
ByBlock
 70
     0
  3

 72
    65
 73
     0
 40
0.0
  0
LTYPE
  5
15
330
5
100
AcDbSymbolTableRecord
100
AcDbLinetypeTableRecord
  2
ByLayer
 70
     0
  3

 72
    65
 73
     0
 40
0.0
  0
LTYPE
  5
16
330
5
100
AcDbSymbolTableRecord
100
AcDbLinetypeTableRecord
  2
Continuous
 70
     0
  3
Solid line
 72
    65
 73
     0
 40
0.0
  0
LTYPE
  5
3F
330
5
100
AcDbSymbolTableRecord
100
AcDbLinetypeTableRecord
  2
HIDDEN
 70
     0
  3
Hidden __ __ __ __ __ __ __ __ __ __ __ __ __ __
 72
    65
 73
     2
 40
1.905
 49
1.27
 74
     0
 49
-0.635
 74
     0
  0
LTYPE
  5
40
330
5
100
AcDbSymbolTableRecord
100
AcDbLinetypeTableRecord
  2
PHANTOM
 70
     0
  3
Phantom ______  __  __  ______  __  __  ______
 72
    65
 73
     6
 40
12.7
 49
6.35
 74
     0
 49
-1.27
 74
     0
 49
1.27
 74
     0
 49
-1.27
 74
     0
 49
1.27
 74
     0
 49
-1.27
 74
     0
  0
LTYPE
  5
41
330
5
100
AcDbSymbolTableRecord
100
AcDbLinetypeTableRecord
  2
CENTER
 70
     0
  3
Center ____ _ ____ _ ____ _ ____ _ ____ _ ____
 72
    65
 73
     4
 40
10.16
 49
6.35
 74
     0
 49
-1.27
 74
     0
 49
1.27
 74
     0
 49
-1.27
 74
     0
  0
LTYPE
  5
42
330
5
100
AcDbSymbolTableRecord
100
AcDbLinetypeTableRecord
  2
CENTERX2
 70
     0
  3
Center (2x) ________  __  ________  __  _____
 72
    65
 73
     4
 40
20.32
 49
12.7
 74
     0
 49
-2.54
 74
     0
 49
2.54
 74
     0
 49
-2.54
 74
     0
  0
LTYPE
  5
43
330
5
100
AcDbSymbolTableRecord
100
AcDbLinetypeTableRecord
  2
DOT2
 70
     0
  3
Dot (.5x) ........................................
 72
    65
 73
     2
 40
0.635
 49
0.0
 74
     0
 49
-0.635
 74
     0
  0
ENDTAB
  0
TABLE
  2
LAYER
  5
2
330
0
100
AcDbSymbolTable
 70
     2
  0
LAYER
  5
10
330
2
100
AcDbSymbolTableRecord
100
AcDbLayerTableRecord
  2
0
 70
     0
 62
     7
  6
Continuous
370
    -3
390
F
  0
LAYER
  5
44
330
2
100
AcDbSymbolTableRecord
100
AcDbLayerTableRecord
  2
FORMAT
 70
     0
 62
     7
  6
Continuous
370
    -3
390
F
  0
ENDTAB
  0
TABLE
  2
STYLE
  5
3
330
0
100
AcDbSymbolTable
 70
     2
  0
STYLE
  5
11
330
3
100
AcDbSymbolTableRecord
100
AcDbTextStyleTableRecord
  2
Standard
 70
     0
 40
0.0
 41
1.0
 50
0.0
 71
     0
 42
2.5
  3
txt
  4
bigfont
  0
STYLE
  5
45
330
3
100
AcDbSymbolTableRecord
100
AcDbTextStyleTableRecord
  2
SLDTEXTSTYLE0
 70
     0
 40
0.0
 41
0.7
 50
0.0
 71
     0
 42
0.2
  3
TXT
  4
bigfont
  0
ENDTAB
  0
TABLE
  2
VIEW
  5
6
330
0
100
AcDbSymbolTable
 70
     0
  0
ENDTAB
  0
TABLE
  2
UCS
  5
7
330
0
100
AcDbSymbolTable
 70
     0
  0
ENDTAB
  0
TABLE
  2
APPID
  5
9
330
0
100
AcDbSymbolTable
 70
     1
  0
APPID
  5
12
330
9
100
AcDbSymbolTableRecord
100
AcDbRegAppTableRecord
  2
ACAD
 70
     0
  0
ENDTAB
  0
TABLE
  2
DIMSTYLE
  5
A
330
0
100
AcDbSymbolTable
 70
     2
100
AcDbDimStyleTable
  0
DIMSTYLE
105
27
330
A
100
AcDbSymbolTableRecord
100
AcDbDimStyleTableRecord
  2
ISO-25
 70
     0
 41
2.5
 42
0.625
 43
3.75
 44
1.25
 73
     0
 74
     0
 77
     1
 78
     8
140
2.5
141
2.5
143
0.0393700787
147
0.625
171
     3
172
     1
178
     0
271
     2
272
     2
274
     3
278
    44
283
     0
284
     8
340
11
  0
DIMSTYLE
105
9D
102
{ACAD_REACTORS
330
9C
330
AD
330
B7
330
15C
330
166
102
}
330
A
100
AcDbSymbolTableRecord
100
AcDbDimStyleTableRecord
  2
SLDDIMSTYLE0
 70
     0
 41
3.0
 44
0.0
 45
0.000000001
 73
     0
 74
     0
 77
     3
 78
    12
 79
     3
140
3.5
147
0.875
173
     1
178
     0
271
     1
272
     1
276
     2
284
    12
340
45
341
9E
343
9E
344
9E
  0
ENDTAB
  0
TABLE
  2
BLOCK_RECORD
  5
1
330
0
100
AcDbSymbolTable
 70
     9
  0
BLOCK_RECORD
  5
1F
330
1
100
AcDbSymbolTableRecord
100
AcDbBlockTableRecord
  2
*Model_Space
340
22
  0
BLOCK_RECORD
  5
1B
330
1
100
AcDbSymbolTableRecord
100
AcDbBlockTableRecord
  2
*Paper_Space
340
1E
  0
BLOCK_RECORD
  5
23
330
1
100
AcDbSymbolTableRecord
100
AcDbBlockTableRecord
  2
*Paper_Space0
340
26
  0
BLOCK_RECORD
  5
9E
330
1
100
AcDbSymbolTableRecord
100
AcDbBlockTableRecord
  2
_OPEN30
340
0
102
{BLKREFS
331
A7
331
A8
331
B1
331
B2
331
BB
331
BC
331
160
331
161
331
16A
331
16B
102
}
  0
BLOCK_RECORD
  5
A4
330
1
100
AcDbSymbolTableRecord
100
AcDbBlockTableRecord
  2
*D2
340
0
  0
BLOCK_RECORD
  5
AE
330
1
100
AcDbSymbolTableRecord
100
AcDbBlockTableRecord
  2
*D3
340
0
  0
BLOCK_RECORD
  5
B8
330
1
100
AcDbSymbolTableRecord
100
AcDbBlockTableRecord
  2
*D4
340
0
  0
BLOCK_RECORD
  5
C1
330
1
100
AcDbSymbolTableRecord
100
AcDbBlockTableRecord
  2
SW_CENTERMARKSYMBOL_0
340
0
102
{BLKREFS
331
CC
102
}
  0
BLOCK_RECORD
  5
15D
330
1
100
AcDbSymbolTableRecord
100
AcDbBlockTableRecord
  2
*D6
340
0
  0
BLOCK_RECORD
  5
167
330
1
100
AcDbSymbolTableRecord
100
AcDbBlockTableRecord
  2
*D7
340
0
  0
BLOCK_RECORD
  5
1BE
330
1
100
AcDbSymbolTableRecord
100
AcDbBlockTableRecord
  2
SW_CENTERMARKSYMBOL_1
340
0
102
{BLKREFS
331
1C9
102
}
  0
ENDTAB
  0
ENDSEC
  0
SECTION
  2
BLOCKS
  0
BLOCK
  5
20
330
1F
100
AcDbEntity
  8
0
100
AcDbBlockBegin
  2
*Model_Space
 70
     0
 10
0.0
 20
0.0
 30
0.0
  3
*Model_Space
  1

  0
ENDBLK
  5
21
330
1F
100
AcDbEntity
  8
0
100
AcDbBlockEnd
  0
BLOCK
  5
1C
330
1B
100
AcDbEntity
 67
     1
  8
0
100
AcDbBlockBegin
  2
*Paper_Space
 70
     0
 10
0.0
 20
0.0
 30
0.0
  3
*Paper_Space
  1

  0
ENDBLK
  5
1D
330
1B
100
AcDbEntity
 67
     1
  8
0
100
AcDbBlockEnd
  0
BLOCK
  5
24
330
23
100
AcDbEntity
  8
0
100
AcDbBlockBegin
  2
*Paper_Space0
 70
     0
 10
0.0
 20
0.0
 30
0.0
  3
*Paper_Space0
  1

  0
ENDBLK
  5
25
330
23
100
AcDbEntity
  8
0
100
AcDbBlockEnd
  0
BLOCK
  5
9F
330
9E
100
AcDbEntity
  8
0
100
AcDbBlockBegin
  2
_OPEN30
 70
     0
 10
0.0
 20
0.0
 30
0.0
  3
_OPEN30
  1

  0
LINE
  5
A1
330
9E
100
AcDbEntity
  8
0
  6
ByBlock
 62
     0
370
    -2
100
AcDbLine
 10
-1.0
 20
0.267949
 30
0.0
 11
0.0
 21
0.0
 31
0.0
  0
LINE
  5
A2
330
9E
100
AcDbEntity
  8
0
  6
ByBlock
 62
     0
370
    -2
100
AcDbLine
 10
0.0
 20
0.0
 30
0.0
 11
-1.0
 21
-0.267949
 31
0.0
  0
LINE
  5
A3
330
9E
100
AcDbEntity
  8
0
  6
ByBlock
 62
     0
370
    -2
100
AcDbLine
 10
0.0
 20
0.0
 30
0.0
 11
-1.0
 21
0.0
 31
0.0
  0
ENDBLK
  5
A0
330
9E
100
AcDbEntity
  8
0
100
AcDbBlockEnd
  0
BLOCK
  5
A5
330
A4
100
AcDbEntity
  8
0
100
AcDbBlockBegin
  2
*D2
 70
     1
 10
0.0
 20
0.0
 30
0.0
  3
*D2
  1

  0
INSERT
  5
A7
330
A4
100
AcDbEntity
  8
0
  6
Continuous
 62
     7
370
     0
100
AcDbBlockReference
  2
_OPEN30
 10
407.2042704023
 20
96.0478357327
 30
0.1
 41
3.0
 42
3.0
 50
270.0
  0
INSERT
  5
A8
330
A4
100
AcDbEntity
  8
0
  6
Continuous
 62
     7
370
     0
100
AcDbBlockReference
  2
_OPEN30
 10
407.2042704023
 20
223.5478357327
 30
0.1
 41
3.0
 42
3.0
 50
90.0
  0
LINE
  5
A9
330
A4
100
AcDbEntity
  8
0
  6
Continuous
 62
     7
370
     0
100
AcDbLine
 10
334.8026565373
 20
96.0478357327
 30
0.0
 11
408.2042704023
 21
96.0478357327
 31
0.0
  0
LINE
  5
AA
330
A4
100
AcDbEntity
  8
0
  6
Continuous
 62
     7
370
     0
100
AcDbLine
 10
379.0526565373
 20
223.5478357327
 30
0.0
 11
408.2042704023
 21
223.5478357327
 31
0.0
  0
LINE
  5
AB
330
A4
100
AcDbEntity
  8
0
  6
Continuous
 62
     7
370
     0
100
AcDbLine
 10
407.2042704023
 20
96.0478357327
 30
0.0
 11
407.2042704023
 21
223.5478357327
 31
0.0
  0
MTEXT
  5
AC
330
A4
100
AcDbEntity
  8
0
  6
Continuous
 62
     7
370
     0
100
AcDbMText
 10
402.6925335459
 20
154.8205175184
 30
0.1
 40
3.5
 41
0.0
 71
     1
 72
     1
  1
127.5
  7
SLDTEXTSTYLE0
 11
6.123233995736766E-17
 21
1.0
 31
0.0
 73
     1
 44
1.0
  0
ENDBLK
  5
A6
330
A4
100
AcDbEntity
  8
0
100
AcDbBlockEnd
  0
BLOCK
  5
AF
330
AE
100
AcDbEntity
  8
0
100
AcDbBlockBegin
  2
*D3
 70
     1
 10
0.0
 20
0.0
 30
0.0
  3
*D3
  1

  0
INSERT
  5
B1
330
AE
100
AcDbEntity
  8
0
  6
Continuous
 62
     7
370
     0
100
AcDbBlockReference
  2
_OPEN30
 10
363.8026565373
 20
74.0478357327
 30
-6.5613314077
 41
3.0
 42
3.0
 50
0.0
  0
INSERT
  5
B2
330
AE
100
AcDbEntity
  8
0
  6
Continuous
 62
     7
370
     0
100
AcDbBlockReference
  2
_OPEN30
 10
333.8026565373
 20
74.0478357327
 30
-6.5613314077
 41
3.0
 42
3.0
 50
180.0
  0
LINE
  5
B3
330
AE
100
AcDbEntity
  8
0
  6
Continuous
 62
     7
370
     0
100
AcDbLine
 10
363.8026565373
 20
220.5478357327
 30
0.0
 11
363.8026565373
 21
73.0478357327
 31
0.0
  0
LINE
  5
B4
330
AE
100
AcDbEntity
  8
0
  6
Continuous
 62
     7
370
     0
100
AcDbLine
 10
333.8026565373
 20
92.5478357327
 30
0.0
 11
333.8026565373
 21
73.0478357327
 31
0.0
  0
LINE
  5
B5
330
AE
100
AcDbEntity
  8
0
  6
Continuous
 62
     7
370
     0
100
AcDbLine
 10
363.8026565373
 20
74.0478357327
 30
0.0
 11
333.8026565373
 21
74.0478357327
 31
0.0
  0
MTEXT
  5
B6
330
AE
100
AcDbEntity
  8
0
  6
Continuous
 62
     7
370
     0
100
AcDbMText
 10
346.2050787009
 20
78.5595725891
 30
-6.5613314077
 40
3.5
 41
0.0
 71
     1
 72
     1
  1
30
  7
SLDTEXTSTYLE0
 73
     1
 44
1.0
  0
ENDBLK
  5
B0
330
AE
100
AcDbEntity
  8
0
100
AcDbBlockEnd
  0
BLOCK
  5
B9
330
B8
100
AcDbEntity
  8
0
100
AcDbBlockBegin
  2
*D4
 70
     1
 10
0.0
 20
0.0
 30
0.0
  3
*D4
  1

  0
INSERT
  5
BB
330
B8
100
AcDbEntity
  8
0
  6
Continuous
 62
     7
370
     0
100
AcDbBlockReference
  2
_OPEN30
 10
407.2042704023
 20
282.0478357327
 30
-6.5613314077
 41
3.0
 42
3.0
 50
90.0
  0
INSERT
  5
BC
330
B8
100
AcDbEntity
  8
0
  6
Continuous
 62
     7
370
     0
100
AcDbBlockReference
  2
_OPEN30
 10
407.2042704023
 20
223.5478357327
 30
-6.5613314077
 41
3.0
 42
3.0
 50
270.0
  0
LINE
  5
BD
330
B8
100
AcDbEntity
  8
0
  6
Continuous
 62
     7
370
     0
100
AcDbLine
 10
369.8026565373
 20
282.0478357327
 30
0.0
 11
408.2042704023
 21
282.0478357327
 31
0.0
  0
LINE
  5
BE
330
B8
100
AcDbEntity
  8
0
  6
Continuous
 62
     7
370
     0
100
AcDbLine
 10
379.0526565373
 20
223.5478357327
 30
0.0
 11
408.2042704023
 21
223.5478357327
 31
0.0
  0
LINE
  5
BF
330
B8
100
AcDbEntity
  8
0
  6
Continuous
 62
     7
370
     0
100
AcDbLine
 10
407.2042704023
 20
282.0478357327
 30
0.0
 11
407.2042704023
 21
223.5478357327
 31
0.0
  0
MTEXT
  5
C0
330
B8
100
AcDbEntity
  8
0
  6
Continuous
 62
     7
370
     0
100
AcDbMText
 10
402.6925335459
 20
248.8747137396
 30
-6.5613314077
 40
3.5
 41
0.0
 71
     1
 72
     1
  1
58.5
  7
SLDTEXTSTYLE0
 11
-7.044195017643634E-15
 21
1.0
 31
0.0
 73
     1
 44
1.0
  0
ENDBLK
  5
BA
330
B8
100
AcDbEntity
  8
0
100
AcDbBlockEnd
  0
BLOCK
  5
C2
330
C1
100
AcDbEntity
  8
0
100
AcDbBlockBegin
  2
SW_CENTERMARKSYMBOL_0
 70
     0
 10
0.0
 20
0.0
 30
0.0
  3
SW_CENTERMARKSYMBOL_0
  1

  0
LINE
  5
C4
330
C1
100
AcDbEntity
  8
0
  6
Continuous
 62
     0
370
     0
100
AcDbLine
 10
0.0
 20
0.0
 30
0.0
 11
0.0
 21
2.5
 31
0.0
  0
LINE
  5
C5
330
C1
100
AcDbEntity
  8
0
  6
Continuous
 62
     0
370
     0
100
AcDbLine
 10
0.0
 20
0.0
 30
0.0
 11
-2.5
 21
0.0
 31
0.0
  0
LINE
  5
C6
330
C1
100
AcDbEntity
  8
0
  6
Continuous
 62
     0
370
     0
100
AcDbLine
 10
0.0
 20
0.0
 30
0.0
 11
0.0
 21
-2.5
 31
0.0
  0
LINE
  5
C7
330
C1
100
AcDbEntity
  8
0
  6
Continuous
 62
     0
370
     0
100
AcDbLine
 10
0.0
 20
0.0
 30
0.0
 11
2.5
 21
0.0
 31
0.0
  0
LINE
  5
C8
330
C1
100
AcDbEntity
  8
0
  6
Continuous
 62
     0
370
     0
100
AcDbLine
 10
0.0
 20
5.0
 30
0.0
 11
0.0
 21
52.5
 31
0.0
  0
LINE
  5
C9
330
C1
100
AcDbEntity
  8
0
  6
Continuous
 62
     0
370
     0
100
AcDbLine
 10
-5.0
 20
0.0
 30
0.0
 11
-52.5
 21
0.0
 31
0.0
  0
LINE
  5
CA
330
C1
100
AcDbEntity
  8
0
  6
Continuous
 62
     0
370
     0
100
AcDbLine
 10
0.0
 20
-5.0
 30
0.0
 11
0.0
 21
-52.5
 31
0.0
  0
LINE
  5
CB
330
C1
100
AcDbEntity
  8
0
  6
Continuous
 62
     0
370
     0
100
AcDbLine
 10
5.0
 20
0.0
 30
0.0
 11
52.5
 21
0.0
 31
0.0
  0
ENDBLK
  5
C3
330
C1
100
AcDbEntity
  8
0
100
AcDbBlockEnd
  0
BLOCK
  5
15E
330
15D
100
AcDbEntity
  8
0
100
AcDbBlockBegin
  2
*D6
 70
     1
 10
0.0
 20
0.0
 30
0.0
  3
*D6
  1

  0
INSERT
  5
160
330
15D
100
AcDbEntity
  8
0
  6
Continuous
 62
     7
370
     0
100
AcDbBlockReference
  2
_OPEN30
 10
159.6188832723
 20
74.0478357327
 30
2.5930491133
 41
3.0
 42
3.0
 50
180.0
  0
INSERT
  5
161
330
15D
100
AcDbEntity
  8
0
  6
Continuous
 62
     7
370
     0
100
AcDbBlockReference
  2
_OPEN30
 10
184.6188832723
 20
74.0478357327
 30
2.5930491133
 41
3.0
 42
3.0
 50
0.0
  0
LINE
  5
162
330
15D
100
AcDbEntity
  8
0
  6
Continuous
 62
     7
370
     0
100
AcDbLine
 10
159.6188832723
 20
97.0478357327
 30
0.0
 11
159.6188832723
 21
73.0478357327
 31
0.0
  0
LINE
  5
163
330
15D
100
AcDbEntity
  8
0
  6
Continuous
 62
     7
370
     0
100
AcDbLine
 10
184.6188832723
 20
97.0478357327
 30
0.0
 11
184.6188832723
 21
73.0478357327
 31
0.0
  0
LINE
  5
164
330
15D
100
AcDbEntity
  8
0
  6
Continuous
 62
     7
370
     0
100
AcDbLine
 10
159.6188832723
 20
74.0478357327
 30
0.0
 11
184.6188832723
 21
74.0478357327
 31
0.0
  0
MTEXT
  5
165
330
15D
100
AcDbEntity
  8
0
  6
Continuous
 62
     7
370
     0
100
AcDbMText
 10
169.3242634049
 20
78.5595725891
 30
2.5930491133
 40
3.5
 41
0.0
 71
     1
 72
     1
  1
25
  7
SLDTEXTSTYLE0
 73
     1
 44
1.0
  0
ENDBLK
  5
15F
330
15D
100
AcDbEntity
  8
0
100
AcDbBlockEnd
  0
BLOCK
  5
168
330
167
100
AcDbEntity
  8
0
100
AcDbBlockBegin
  2
*D7
 70
     1
 10
0.0
 20
0.0
 30
0.0
  3
*D7
  1

  0
INSERT
  5
16A
330
167
100
AcDbEntity
  8
0
  6
Continuous
 62
     7
370
     0
100
AcDbBlockReference
  2
_OPEN30
 10
235.802334007
 20
196.0478357327
 30
2.5930491133
 41
3.0
 42
3.0
 50
90.0
  0
INSERT
  5
16B
330
167
100
AcDbEntity
  8
0
  6
Continuous
 62
     7
370
     0
100
AcDbBlockReference
  2
_OPEN30
 10
235.802334007
 20
96.0478357327
 30
2.5930491133
 41
3.0
 42
3.0
 50
270.0
  0
LINE
  5
16C
330
167
100
AcDbEntity
  8
0
  6
Continuous
 62
     7
370
     0
100
AcDbLine
 10
183.6188832723
 20
196.0478357327
 30
0.0
 11
236.802334007
 21
196.0478357327
 31
0.0
  0
LINE
  5
16D
330
167
100
AcDbEntity
  8
0
  6
Continuous
 62
     7
370
     0
100
AcDbLine
 10
183.6188832723
 20
96.0478357327
 30
0.0
 11
236.802334007
 21
96.0478357327
 31
0.0
  0
LINE
  5
16E
330
167
100
AcDbEntity
  8
0
  6
Continuous
 62
     7
370
     0
100
AcDbLine
 10
235.802334007
 20
196.0478357327
 30
0.0
 11
235.802334007
 21
96.0478357327
 31
0.0
  0
MTEXT
  5
16F
330
167
100
AcDbEntity
  8
0
  6
Continuous
 62
     7
370
     0
100
AcDbMText
 10
231.290596685
 20
137.3574456729
 30
2.5930491133
 40
3.5
 41
0.0
 71
     1
 72
     1
  1
%%c
  7
SLDTEXTSTYLE0
 11
-7.044195017643634E-15
 21
1.0
 31
0.0
 73
     1
 44
1.0
  0
MTEXT
  5
170
330
167
100
AcDbEntity
  8
0
  6
Continuous
 62
     7
370
     0
100
AcDbMText
 10
231.290596685
 20
141.227376188
 30
2.5930491133
 40
3.5
 41
0.0
 71
     1
 72
     1
  1
100
  7
SLDTEXTSTYLE0
 11
-7.044195017643634E-15
 21
1.0
 31
0.0
 73
     1
 44
1.0
  0
ENDBLK
  5
169
330
167
100
AcDbEntity
  8
0
100
AcDbBlockEnd
  0
BLOCK
  5
1BF
330
1BE
100
AcDbEntity
  8
0
100
AcDbBlockBegin
  2
SW_CENTERMARKSYMBOL_1
 70
     0
 10
0.0
 20
0.0
 30
0.0
  3
SW_CENTERMARKSYMBOL_1
  1

  0
LINE
  5
1C1
330
1BE
100
AcDbEntity
  8
0
  6
Continuous
 62
     0
370
     0
100
AcDbLine
 10
0.0
 20
0.0
 30
0.0
 11
0.0
 21
2.5
 31
0.0
  0
LINE
  5
1C2
330
1BE
100
AcDbEntity
  8
0
  6
Continuous
 62
     0
370
     0
100
AcDbLine
 10
0.0
 20
0.0
 30
0.0
 11
-2.5
 21
0.0
 31
0.0
  0
LINE
  5
1C3
330
1BE
100
AcDbEntity
  8
0
  6
Continuous
 62
     0
370
     0
100
AcDbLine
 10
0.0
 20
0.0
 30
0.0
 11
0.0
 21
-2.5
 31
0.0
  0
LINE
  5
1C4
330
1BE
100
AcDbEntity
  8
0
  6
Continuous
 62
     0
370
     0
100
AcDbLine
 10
0.0
 20
0.0
 30
0.0
 11
2.5
 21
0.0
 31
0.0
  0
LINE
  5
1C5
330
1BE
100
AcDbEntity
  8
0
  6
Continuous
 62
     0
370
     0
100
AcDbLine
 10
0.0
 20
5.0
 30
0.0
 11
0.0
 21
24.0
 31
0.0
  0
LINE
  5
1C6
330
1BE
100
AcDbEntity
  8
0
  6
Continuous
 62
     0
370
     0
100
AcDbLine
 10
-5.0
 20
0.0
 30
0.0
 11
-24.0
 21
0.0
 31
0.0
  0
LINE
  5
1C7
330
1BE
100
AcDbEntity
  8
0
  6
Continuous
 62
     0
370
     0
100
AcDbLine
 10
0.0
 20
-5.0
 30
0.0
 11
0.0
 21
-24.0
 31
0.0
  0
LINE
  5
1C8
330
1BE
100
AcDbEntity
  8
0
  6
Continuous
 62
     0
370
     0
100
AcDbLine
 10
5.0
 20
0.0
 30
0.0
 11
24.0
 21
0.0
 31
0.0
  0
ENDBLK
  5
1C0
330
1BE
100
AcDbEntity
  8
0
100
AcDbBlockEnd
  0
ENDSEC
  0
SECTION
  2
ENTITIES
  0
MTEXT
  5
46
330
1F
100
AcDbEntity
  8
0
  6
Continuous
 62
     7
370
     0
100
AcDbMText
 10
253.7268015182
 20
68.7091862674
 30
0.0
 40
3.5
 41
0.0
 71
     1
 72
     1
  1
GFN-587
  7
SLDTEXTSTYLE0
 73
     1
 44
1.0
  0
LINE
  5
47
330
1F
100
AcDbEntity
  8
0
  6
Continuous
 62
     7
370
    15
100
AcDbLine
 10
388.7887547639
 20
199.0765286204
 30
0.0
 11
388.0426975918
 21
205.9828545484
 31
0.0
  0
ARC
  5
48
330
1F
100
AcDbEntity
  8
0
  6
Continuous
 62
     7
370
    15
100
AcDbCircle
 10
342.5452630433
 20
205.6606534783
 30
0.0
 40
3.000000000000079
100
AcDbArc
 50
105.762902768
 51
173.8345209083
  0
ARC
  5
49
330
1F
100
AcDbEntity
  8
0
  6
Continuous
 62
     7
370
    15
100
AcDbCircle
 10
385.0600500313
 20
205.6606534783
 30
0.0
 40
3.000000000000051
100
AcDbArc
 50
6.1654790917
 51
74.237097232
  0
ARC
  5
4A
330
1F
100
AcDbEntity
  8
0
  6
Continuous
 62
     7
370
    15
100
AcDbCircle
 10
345.3026565373
 20
214.0478357327
 30
0.0
 40
3.000000000000028
100
AcDbArc
 50
90.0
 51
180.0
  0
ARC
  5
4B
330
1F
100
AcDbEntity
  8
0
  6
Continuous
 62
     7
370
    15
100
AcDbCircle
 10
382.3026565373
 20
214.0478357327
 30
0.0
 40
3.000000000000028
100
AcDbArc
 50
0.0
 51
90.0
  0
LINE
  5
4C
330
1F
100
AcDbEntity
  8
0
  6
Continuous
 62
     7
370
    15
100
AcDbLine
 10
385.3026565373
 20
208.5478357327
 30
0.0
 11
385.3026565373
 21
214.0478357327
 31
0.0
  0
LINE
  5
4D
330
1F
100
AcDbEntity
  8
0
  6
Continuous
 62
     7
370
    15
100
AcDbLine
 10
342.3026565373
 20
214.0478357327
 30
0.0
 11
342.3026565373
 21
208.5478357327
 31
0.0
  0
LINE
  5
4E
330
1F
100
AcDbEntity
  8
0
  6
Continuous
 62
     7
370
    15
100
AcDbLine
 10
378.0526565373
 20
221.5478357327
 30
0.0
 11
378.0526565373
 21
223.5478357327
 31
0.0
  0
LINE
  5
4F
330
1F
100
AcDbEntity
  8
0
  6
Continuous
 62
     7
370
    15
100
AcDbLine
 10
349.5526565373
 20
223.5478357327
 30
0.0
 11
349.5526565373
 21
221.5478357327
 31
0.0
  0
LINE
  5
50
330
1F
100
AcDbEntity
  8
0
  6
Continuous
 62
     7
370
    15
100
AcDbLine
 10
375.3026565373
 20
272.0478357327
 30
0.0
 11
375.3026565373
 21
275.0478357327
 31
0.0
  0
LINE
  5
51
330
1F
100
AcDbEntity
  8
0
  6
Continuous
 62
     7
370
    15
100
AcDbLine
 10
352.3026565373
 20
275.0478357327
 30
0.0
 11
352.3026565373
 21
272.0478357327
 31
0.0
  0
ARC
  5
52
330
1F
100
AcDbEntity
  8
0
  6
Continuous
 62
     7
370
    15
100
AcDbCircle
 10
353.3026565373
 20
275.0478357327
 30
0.0
 40
1.0
100
AcDbArc
 50
90.0
 51
180.0
  0
ARC
  5
53
330
1F
100
AcDbEntity
  8
0
  6
Continuous
 62
     7
370
    15
100
AcDbCircle
 10
374.3026565373
 20
275.0478357327
 30
0.0
 40
1.0
100
AcDbArc
 50
0.0
 51
90.0
  0
LINE
  5
54
330
1F
100
AcDbEntity
  8
0
  6
Continuous
 62
     7
370
    15
100
AcDbLine
 10
374.8026565373
 20
223.5478357327
 30
0.0
 11
374.8026565373
 21
272.0478357327
 31
0.0
  0
LINE
  5
55
330
1F
100
AcDbEntity
  8
0
  6
Continuous
 62
     7
370
    15
100
AcDbLine
 10
352.8026565373
 20
272.0478357327
 30
0.0
 11
352.8026565373
 21
223.5478357327
 31
0.0
  0
LINE
  5
56
330
1F
100
AcDbEntity
  8
0
  6
Continuous
 62
     7
370
    15
100
AcDbLine
 10
339.5626154827
 20
205.9828545484
 30
0.0
 11
339.5012982873
 21
205.4152351316
 31
0.0
  0
LINE
  5
57
330
1F
100
AcDbEntity
  8
0
  6
Continuous
 62
     7
370
    15
100
AcDbLine
 10
369.8026565373
 20
276.0478357327
 30
0.0
 11
369.8026565373
 21
281.0478357327
 31
0.0
  0
LINE
  5
58
330
1F
100
AcDbEntity
  8
0
  6
Continuous
 62
     7
370
    15
100
AcDbLine
 10
357.8026565373
 20
281.0478357327
 30
0.0
 11
357.8026565373
 21
276.0478357327
 31
0.0
  0
LINE
  5
59
330
1F
100
AcDbEntity
  8
0
  6
Continuous
 62
     7
370
    15
100
AcDbLine
 10
369.8026565373
 20
281.0478357327
 30
0.0
 11
368.8026565373
 21
282.0478357327
 31
0.0
  0
LINE
  5
5A
330
1F
100
AcDbEntity
  8
0
  6
Continuous
 62
     7
370
    15
100
AcDbLine
 10
358.8026565373
 20
282.0478357327
 30
0.0
 11
357.8026565373
 21
281.0478357327
 31
0.0
  0
LWPOLYLINE
  5
5B
330
1F
100
AcDbEntity
  8
0
  6
Continuous
 62
     7
370
    15
100
AcDbPolyline
 90
       24
 70
   128
 43
0.0
 10
379.0791485561
 20
129.1231252343
 10
378.9206800672
 20
129.2056187249
 10
378.5632431552
 20
129.3916886481
 10
378.0131778508
 20
129.6780345921
 10
377.2802409269
 20
130.059577501
 10
376.3774328386
 20
130.5295497646
 10
375.3207671276
 20
131.0796152588
 10
374.1289863821
 20
131.7000172069
 10
372.8232297908
 20
132.3797512412
 10
371.4266581869
 20
133.1067605918
 10
369.9640432333
 20
133.8681499439
 10
368.4613280352
 20
134.6504141681
 10
366.9451669755
 20
135.4396778674
 10
365.4424529327
 20
136.2219414916
 10
363.979840269
 20
136.9833296543
 10
362.5832720493
 20
137.7103372472
 10
361.2775198763
 20
138.3900689866
 10
360.0857445047
 20
139.0104681436
 10
359.0290850281
 20
139.5605303996
 10
358.1262839241
 20
140.0304990357
 10
357.3933546104
 20
140.4120379919
 10
356.8432974071
 20
140.6983797282
 10
356.4858689436
 20
140.8844452633
 10
356.32740869
 20
140.9669334747
  0
LINE
  5
5C
330
1F
100
AcDbEntity
  8
0
  6
Continuous
 62
     7
370
    15
100
AcDbLine
 10
356.32740869
 20
140.9669334747
 30
0.0
 11
357.2509055842
 21
142.7409545711
 31
0.0
  0
LWPOLYLINE
  5
5D
330
1F
100
AcDbEntity
  8
0
  6
Continuous
 62
     7
370
    15
100
AcDbPolyline
 90
       24
 70
   128
 43
0.0
 10
357.2509055842
 20
142.7409545711
 10
357.4093659209
 20
142.6584653384
 10
357.7667956221
 20
142.4723992072
 10
358.3168547616
 20
142.1860565342
 10
359.0497866391
 20
141.8045163364
 10
359.9525908407
 20
141.334546201
 10
361.0092538339
 20
140.7844822458
 10
362.2010330085
 20
140.1640812562
 10
363.5067891249
 20
139.4843476244
 10
364.9033612718
 20
138.757338158
 10
366.3659776842
 20
137.9959482219
 10
367.8686951342
 20
137.2136830064
 10
369.3848590993
 20
136.4244179779
 10
370.8875765492
 20
135.6421527623
 10
372.3501929617
 20
134.8807628262
 10
373.7467651085
 20
134.1537533598
 10
375.0525212249
 20
133.474019728
 10
376.2443003996
 20
132.8536187385
 10
377.3009633927
 20
132.3035547832
 10
378.2037675943
 20
131.8335846479
 10
378.9366994718
 20
131.45204445
 10
379.4867586113
 20
131.1657017771
 10
379.8441883125
 20
130.9796356458
 10
380.0026493058
 20
130.8971476743
  0
LINE
  5
5E
330
1F
100
AcDbEntity
  8
0
  6
Continuous
 62
     7
370
    15
100
AcDbLine
 10
380.0026493058
 20
130.8971476743
 30
0.0
 11
379.0791485561
 21
129.1231252343
 31
0.0
  0
LINE
  5
5F
330
1F
100
AcDbEntity
  8
0
  6
Continuous
 62
     7
370
    15
100
AcDbLine
 10
316.8535820044
 20
161.5157059317
 30
0.0
 11
294.0805486511
 21
173.3705874847
 31
0.0
  0
LINE
  5
60
330
1F
100
AcDbEntity
  8
0
  6
Continuous
 62
     7
370
    15
100
AcDbLine
 10
294.0805486511
 20
173.3705874847
 30
0.0
 11
295.0040460851
 21
175.144609618
 31
0.0
  0
LINE
  5
61
330
1F
100
AcDbEntity
  8
0
  6
Continuous
 62
     7
370
    15
100
AcDbLine
 10
316.8535820044
 20
161.5157059317
 30
0.0
 11
317.7770794384
 21
163.289728065
 31
0.0
  0
LINE
  5
62
330
1F
100
AcDbEntity
  8
0
  6
Continuous
 62
     7
370
    15
100
AcDbLine
 10
295.0040460851
 20
175.144609618
 30
0.0
 11
317.7770794384
 21
163.289728065
 31
0.0
  0
ARC
  5
63
330
1F
100
AcDbEntity
  8
0
  6
Continuous
 62
     7
370
    15
100
AcDbCircle
 10
350.3417841399
 20
148.5923824952
 30
0.0
 40
4.000001067601517
100
AcDbArc
 50
210.8722947742
 51
242.4999969402
  0
LINE
  5
64
330
1F
100
AcDbEntity
  8
0
  6
Continuous
 62
     7
370
    15
100
AcDbLine
 10
346.9085307158
 20
146.5398768395
 30
0.0
 11
344.7773607158
 21
150.1047198395
 31
0.0
  0
ARC
  5
65
330
1F
100
AcDbEntity
  8
0
  6
Continuous
 62
     7
370
    15
100
AcDbCircle
 10
331.9026565373
 20
142.4078357327
 30
0.0
 40
15.00000108793274
100
AcDbArc
 50
30.8722475743
 51
94.1277424453
  0
LINE
  5
66
330
1F
100
AcDbEntity
  8
0
  6
Continuous
 62
     7
370
    15
100
AcDbLine
 10
330.8229505523
 20
157.3689275252
 30
0.0
 11
326.6804118523
 21
157.0699715252
 31
0.0
  0
ARC
  5
67
330
1F
100
AcDbEntity
  8
0
  6
Continuous
 62
     7
370
    15
100
AcDbCircle
 10
326.3924899339
 20
161.0595957801
 30
0.0
 40
4.000000090747923
100
AcDbArc
 50
242.5000421934
 51
274.1277472813
  0
LINE
  5
68
330
1F
100
AcDbEntity
  8
0
  6
Continuous
 62
     7
370
    15
100
AcDbLine
 10
326.5364511346
 20
159.0647824617
 30
0.0
 11
330.6789938139
 21
159.363738821
 31
0.0
  0
ARC
  5
69
330
1F
100
AcDbEntity
  8
0
  6
Continuous
 62
     7
370
    15
100
AcDbCircle
 10
331.9026565373
 20
142.4078357327
 30
0.0
 40
17.00000000000001
100
AcDbArc
 50
30.8722426382
 51
94.1277290272
  0
LINE
  5
6A
330
1F
100
AcDbEntity
  8
0
  6
Continuous
 62
     7
370
    15
100
AcDbLine
 10
346.4939876328
 20
151.130969164
 30
0.0
 11
348.6251549168
 21
147.5661293618
 31
0.0
  0
ARC
  5
6B
330
1F
100
AcDbEntity
  8
0
  6
Continuous
 62
     7
370
    15
100
AcDbCircle
 10
350.3417827066
 20
148.5923816383
 30
0.0
 40
2.000001176010993
100
AcDbArc
 50
210.8722653743
 51
242.4999840725
  0
ARC
  5
6C
330
1F
100
AcDbEntity
  8
0
  6
Continuous
 62
     7
370
    15
100
AcDbCircle
 10
326.3924900541
 20
161.0595941145
 30
0.0
 40
1.999999580763536
100
AcDbArc
 50
242.5000409858
 51
274.1277517267
  0
LINE
  5
6D
330
1F
100
AcDbEntity
  8
0
  6
Continuous
 62
     7
370
    15
100
AcDbLine
 10
324.5454980518
 20
157.5115510067
 30
0.0
 11
316.8535820044
 21
161.5157059317
 31
0.0
  0
LINE
  5
6E
330
1F
100
AcDbEntity
  8
0
  6
Continuous
 62
     7
370
    15
100
AcDbLine
 10
317.7770794384
 20
163.289728065
 30
0.0
 11
325.4689949467
 21
159.2855734206
 31
0.0
  0
LINE
  5
6F
330
1F
100
AcDbEntity
  8
0
  6
Continuous
 62
     7
370
    15
100
AcDbLine
 10
349.418284444
 20
146.8183591855
 30
0.0
 11
357.2509055842
 21
142.7409545711
 31
0.0
  0
LINE
  5
70
330
1F
100
AcDbEntity
  8
0
  6
Continuous
 62
     7
370
    15
100
AcDbLine
 10
356.32740869
 20
140.9669334747
 30
0.0
 11
348.4947890046
 21
145.0443383141
 31
0.0
  0
LINE
  5
71
330
1F
100
AcDbEntity
  8
0
  6
Continuous
 62
     7
370
    15
100
AcDbLine
 10
346.3176102031
 20
198.9478385127
 30
0.0
 11
376.9894719217
 21
198.9478385127
 31
0.0
  0
SPLINE
  5
72
330
1F
100
AcDbEntity
  8
0
  6
Continuous
 62
     7
370
    15
100
AcDbSpline
210
0.0
220
0.0
230
1.0
 70
     8
 71
     3
 72
     8
 73
     4
 74
     0
 42
0.00000001
 43
0.00000001
 40
0.0
 40
0.0
 40
0.0
 40
0.0
 40
0.0000158335681026
 40
0.0000158335681026
 40
0.0000158335681026
 40
0.0000158335681026
 10
346.3176102030701
 20
198.9478385127276
 30
0.0
 10
346.3138379681358
 20
198.9478385127276
 30
0.0
 10
346.3100654734591
 20
198.9479823336513
 30
0.0
 10
346.3063012316862
 20
198.9482713193128
 30
0.0
  0
LINE
  5
73
330
1F
100
AcDbEntity
  8
0
  6
Continuous
 62
     7
370
    15
100
AcDbLine
 10
347.094559253
 20
150.1263827893
 30
0.0
 11
376.9894719217
 21
198.9478385127
 31
0.0
  0
LINE
  5
74
330
1F
100
AcDbEntity
  8
0
  6
Continuous
 62
     7
370
    15
100
AcDbLine
 10
377.0682729217
 20
199.0765286204
 30
0.0
 11
388.7887547639
 21
199.0765286204
 31
0.0
  0
LINE
  5
75
330
1F
100
AcDbEntity
  8
0
  6
Continuous
 62
     7
370
    15
100
AcDbLine
 10
376.9894719217
 20
198.9478385127
 30
0.0
 11
377.0682729217
 21
199.0765286204
 31
0.0
  0
LINE
  5
76
330
1F
100
AcDbEntity
  8
0
  6
Continuous
 62
     7
370
    15
100
AcDbLine
 10
341.7302914917
 20
208.5478357327
 30
0.0
 11
385.8750215828
 21
208.5478357327
 31
0.0
  0
CIRCLE
  5
77
330
1F
100
AcDbEntity
  8
0
  6
Continuous
 62
     7
370
    15
100
AcDbCircle
 10
333.8026565373
 20
146.0478357327
 30
0.0
 40
3.599999999999966
  0
CIRCLE
  5
78
330
1F
100
AcDbEntity
  8
0
  6
Continuous
 62
     7
370
    15
100
AcDbCircle
 10
333.8026565373
 20
146.0478357327
 30
0.0
 40
5.599999999999966
  0
LINE
  5
79
330
1F
100
AcDbEntity
  8
0
  6
Continuous
 62
     7
370
    15
100
AcDbLine
 10
345.3026565373
 20
217.0478357327
 30
0.0
 11
382.3026564887
 21
217.0478357327
 31
0.0
  0
SPLINE
  5
7A
330
1F
100
AcDbEntity
  8
0
  6
Continuous
 62
     7
370
    15
100
AcDbSpline
210
0.0
220
0.0
230
1.0
 70
     8
 71
     3
 72
    12
 73
     8
 74
     0
 42
0.00000001
 43
0.00000001
 40
0.0
 40
0.0
 40
0.0
 40
0.0
 40
0.5000000000000032
 40
0.5000000000000032
 40
0.7500000000000016
 40
0.7500000000000016
 40
1.0
 40
1.0
 40
1.0
 40
1.0
 10
367.6340772987892
 20
135.0810537897496
 30
0.0
 10
367.3252090152758
 20
135.2418404562872
 30
0.0
 10
366.9962135111688
 20
135.3677358824489
 30
0.0
 10
366.4779692618974
 20
135.4976878943722
 30
0.0
 10
366.302502070705
 20
135.5308606928448
 30
0.0
 10
365.9443092517545
 20
135.5763716713939
 30
0.0
 10
365.7601379154509
 20
135.5887099775813
 30
0.0
 10
365.5745832107782
 20
135.5894676692125
 30
0.0
  0
ARC
  5
7B
330
1F
100
AcDbEntity
  8
0
  6
Continuous
 62
     7
370
    15
100
AcDbCircle
 10
353.2510161848
 20
152.2751667327
 30
0.0
 40
19.99999999999996
100
AcDbArc
 50
248.4151225499
 51
300.1491510319
  0
ARC
  5
7C
330
1F
100
AcDbEntity
  8
0
  6
Continuous
 62
     7
370
    15
100
AcDbCircle
 10
337.5452713578
 20
153.2471278622
 30
0.0
 40
20.620001
100
AcDbArc
 50
196.1707628447
 51
288.74157986
  0
ARC
  5
7D
330
1F
100
AcDbEntity
  8
0
  6
Continuous
 62
     7
370
    15
100
AcDbCircle
 10
315.339990115
 20
146.808182897
 30
0.0
 40
2.500001753891635
100
AcDbArc
 50
16.1707628447
 51
55.9845485408
  0
ARC
  5
7E
330
1F
100
AcDbEntity
  8
0
  6
Continuous
 62
     7
370
    15
100
AcDbCircle
 10
327.9268613791
 20
165.458135999
 30
0.0
 40
20.00000000000007
100
AcDbArc
 50
192.0987646555
 51
235.9845485408
  0
ARC
  5
7F
330
1F
100
AcDbEntity
  8
0
  6
Continuous
 62
     7
370
    15
100
AcDbCircle
 10
304.9488480994
 20
160.5325949777
 30
0.0
 40
3.500001034772762
100
AcDbArc
 50
12.0987646555
 51
46.0958280889
  0
ARC
  5
80
330
1F
100
AcDbEntity
  8
0
  6
Continuous
 62
     7
370
    15
100
AcDbCircle
 10
344.973735105
 20
131.3530090809
 30
0.0
 40
2.500001397315781
100
AcDbArc
 50
68.4151225499
 51
108.74157986
  0
ARC
  5
81
330
1F
100
AcDbEntity
  8
0
  6
Continuous
 62
     7
370
    15
100
AcDbCircle
 10
315.6973972585
 20
171.7003486933
 30
0.0
 40
12.00000000000007
100
AcDbArc
 50
202.5556022963
 51
226.0957822963
  0
ARC
  5
82
330
1F
100
AcDbEntity
  8
0
  6
Continuous
 62
     7
370
    15
100
AcDbCircle
 10
301.8447820695
 20
165.9466481648
 30
0.0
 40
3.000000578275229
100
AcDbArc
 50
22.5556630543
 51
28.9424806249
  0
ARC
  5
83
330
1F
100
AcDbEntity
  8
0
  6
Continuous
 62
     7
370
    15
100
AcDbCircle
 10
365.5562081211
 20
131.089504614
 30
0.0
 40
4.500000571378135
100
AcDbArc
 50
89.7660404708
 51
120.1491510319
  0
SPLINE
  5
84
330
1F
100
AcDbEntity
  8
0
  6
Continuous
 62
     7
370
    15
100
AcDbSpline
210
0.0
220
0.0
230
1.0
 70
     8
 71
     3
 72
    14
 73
    10
 74
     0
 42
0.00000001
 43
0.00000001
 40
0.0
 40
0.0
 40
0.0
 40
0.0
 40
0.4999999999999998
 40
0.4999999999999998
 40
0.7500000000000006
 40
0.7500000000000006
 40
0.8750000000000002
 40
0.8750000000000002
 40
1.0
 40
1.0
 40
1.0
 40
1.0
 10
346.3063012316862
 20
198.9482713193128
 30
0.0
 10
346.0257342116728
 20
198.969810808736
 30
0.0
 10
345.7037912231514
 20
198.9945240976226
 30
0.0
 10
345.1590736262594
 20
199.0363305585894
 30
0.0
 10
344.9734615066266
 20
199.0505749312448
 30
0.0
 10
344.6898465266705
 20
199.0723384073681
 30
0.0
 10
344.5944045061206
 20
199.0796619350725
 30
0.0
 10
344.4016861774612
 20
199.0944490902009
 30
0.0
 10
344.3029472766168
 20
199.1020248992949
 30
0.0
 10
344.2067385950148
 20
199.1094063136836
 30
0.0
  0
SPLINE
  5
85
330
1F
100
AcDbEntity
  8
0
  6
Continuous
 62
     7
370
    15
100
AcDbSpline
210
0.0
220
0.0
230
1.0
 70
    24
 71
     3
 72
    10
 73
     6
 74
     0
 42
0.00000001
 43
0.00000001
 40
0.0
 40
0.0
 40
0.0
 40
0.0
 40
0.5
 40
0.5
 40
1.0
 40
1.0
 40
1.0
 40
1.0
 10
346.50590422033
 20
205.9828545483984
 30
0.0
 10
346.50590422033
 20
205.0214022986824
 30
0.0
 10
346.50590422033
 20
204.0612918946069
 30
0.0
 10
346.50590422033
 20
202.144500814793
 30
0.0
 10
346.50590422033
 20
201.1874714741702
 30
0.0
 10
346.50590422033
 20
200.2343245476123
 30
0.0
  0
SPLINE
  5
86
330
1F
100
AcDbEntity
  8
0
  6
Continuous
 62
     7
370
    15
100
AcDbSpline
210
0.0
220
0.0
230
1.0
 70
    24
 71
     3
 72
    10
 73
     6
 74
     0
 42
0.00000001
 43
0.00000001
 40
0.0
 40
0.0
 40
0.0
 40
0.0
 40
0.5
 40
0.5
 40
1.0
 40
1.0
 40
1.0
 40
1.0
 10
345.2831802075502
 20
205.9828545483984
 30
0.0
 10
345.4944373039716
 20
205.9828545483984
 30
0.0
 10
345.7020329623069
 20
205.9828545483984
 30
0.0
 10
346.1101839763101
 20
205.9828545483984
 30
0.0
 10
346.3121206723682
 20
205.9828545483984
 30
0.0
 10
346.50590422033
 20
205.9828545483984
 30
0.0
  0
LINE
  5
87
330
1F
100
AcDbEntity
  8
0
  6
Continuous
 62
     7
370
    15
100
AcDbLine
 10
342.1091991662
 20
205.9828545484
 30
0.0
 11
325.6218898576
 21
202.3943297814
 31
0.0
  0
LINE
  5
88
330
1F
100
AcDbEntity
  8
0
  6
Continuous
 62
     7
370
    15
100
AcDbLine
 10
325.6218898576
 20
202.3943297814
 30
0.0
 11
325.1296914291
 21
159.4622020423
 31
0.0
  0
LINE
  5
89
330
1F
100
AcDbEntity
  8
0
  6
Continuous
 62
     7
370
    15
100
AcDbLine
 10
345.2831802076
 20
205.9828545484
 30
0.0
 11
342.1091991662
 21
205.9828545484
 31
0.0
  0
LINE
  5
8A
330
1F
100
AcDbEntity
  8
0
  6
Continuous
 62
     7
370
    15
100
AcDbLine
 10
363.8026565373
 20
221.5478357327
 30
0.0
 11
378.0526565373
 21
221.5478357327
 31
0.0
  0
LINE
  5
8B
330
1F
100
AcDbEntity
  8
0
  6
Continuous
 62
     7
370
    15
100
AcDbLine
 10
349.5526565373
 20
221.5478357327
 30
0.0
 11
363.8026565373
 21
221.5478357327
 31
0.0
  0
LINE
  5
8C
330
1F
100
AcDbEntity
  8
0
  6
Continuous
 62
     7
370
    15
100
AcDbLine
 10
363.8026565373
 20
223.5478357327
 30
0.0
 11
378.0526565373
 21
223.5478357327
 31
0.0
  0
LINE
  5
8D
330
1F
100
AcDbEntity
  8
0
  6
Continuous
 62
     7
370
    15
100
AcDbLine
 10
349.5526565373
 20
223.5478357327
 30
0.0
 11
363.8026565373
 21
223.5478357327
 31
0.0
  0
ARC
  5
8E
330
1F
100
AcDbEntity
  8
0
  6
Continuous
 62
     7
370
    15
100
AcDbCircle
 10
333.8026565373
 20
146.0478357327
 30
0.0
 40
50.00000000000001
100
AcDbArc
 50
99.510485886
 51
180.0
  0
ARC
  5
8F
330
1F
100
AcDbEntity
  8
0
  6
Continuous
 62
     7
370
    15
100
AcDbCircle
 10
333.8026565373
 20
146.0478357327
 30
0.0
 40
50.0
100
AcDbArc
 50
180.0
 51
47.9100359833
  0
LINE
  5
90
330
1F
100
AcDbEntity
  8
0
  6
Continuous
 62
     7
370
    15
100
AcDbLine
 10
363.8026565373
 20
272.0478357327
 30
0.0
 11
375.3026565373
 21
272.0478357327
 31
0.0
  0
LINE
  5
91
330
1F
100
AcDbEntity
  8
0
  6
Continuous
 62
     7
370
    15
100
AcDbLine
 10
352.3026565373
 20
272.0478357327
 30
0.0
 11
363.8026565373
 21
272.0478357327
 31
0.0
  0
LINE
  5
92
330
1F
100
AcDbEntity
  8
0
  6
Continuous
 62
     7
370
    15
100
AcDbLine
 10
363.8026565373
 20
276.0478357327
 30
0.0
 11
374.3026565373
 21
276.0478357327
 31
0.0
  0
LINE
  5
93
330
1F
100
AcDbEntity
  8
0
  6
Continuous
 62
     7
370
    15
100
AcDbLine
 10
353.3026565373
 20
276.0478357327
 30
0.0
 11
363.8026565373
 21
276.0478357327
 31
0.0
  0
LINE
  5
94
330
1F
100
AcDbEntity
  8
0
  6
Continuous
 62
     7
370
    15
100
AcDbLine
 10
363.8026565373
 20
221.5478357327
 30
0.0
 11
363.8026565373
 21
217.0478357327
 31
0.0
  0
LINE
  5
95
330
1F
100
AcDbEntity
  8
0
  6
Continuous
 62
     7
370
    15
100
AcDbLine
 10
373.3026565373
 20
221.5478357327
 30
0.0
 11
373.3026565373
 21
217.0478357327
 31
0.0
  0
LINE
  5
96
330
1F
100
AcDbEntity
  8
0
  6
Continuous
 62
     7
370
    15
100
AcDbLine
 10
354.3026565373
 20
221.5478357327
 30
0.0
 11
354.3026565373
 21
217.0478357327
 31
0.0
  0
LINE
  5
97
330
1F
100
AcDbEntity
  8
0
  6
Continuous
 62
     7
370
    15
100
AcDbLine
 10
363.8026565373
 20
281.0478357327
 30
0.0
 11
357.8026565373
 21
281.0478357327
 31
0.0
  0
LINE
  5
98
330
1F
100
AcDbEntity
  8
0
  6
Continuous
 62
     7
370
    15
100
AcDbLine
 10
369.8026565373
 20
281.0478357327
 30
0.0
 11
363.8026565373
 21
281.0478357327
 31
0.0
  0
LINE
  5
99
330
1F
100
AcDbEntity
  8
0
  6
Continuous
 62
     7
370
    15
100
AcDbLine
 10
363.8026565373
 20
282.0478357327
 30
0.0
 11
368.8026565373
 21
282.0478357327
 31
0.0
  0
LINE
  5
9A
330
1F
100
AcDbEntity
  8
0
  6
Continuous
 62
     7
370
    15
100
AcDbLine
 10
358.8026565373
 20
282.0478357327
 30
0.0
 11
363.8026565373
 21
282.0478357327
 31
0.0
  0
POINT
  5
9B
330
1F
100
AcDbEntity
  8
0
  6
Continuous
 62
     7
370
    40
100
AcDbPoint
 10
333.8026565373
 20
96.0478357327
 30
0.0
  0
DIMENSION
  5
9C
330
1F
100
AcDbEntity
  8
0
  6
Continuous
 62
     7
370
     0
100
AcDbDimension
  2
*D2
 10
407.2042704023
 20
223.5478357327
 30
0.0
 11
407.2042704023
 21
160.5323235251
 31
0.0
 70
   160
 71
     2
 42
-1.0
  3
SLDDIMSTYLE0
100
AcDbAlignedDimension
 13
333.8026565373
 23
96.0478357327
 33
0.0
 14
378.0526565373
 24
223.5478357327
 34
0.0
 50
90.0
100
AcDbRotatedDimension
  0
DIMENSION
  5
AD
330
1F
100
AcDbEntity
  8
0
  6
Continuous
 62
     7
370
     0
100
AcDbDimension
  2
*D3
 10
333.8026565373
 20
74.0478357327
 30
0.0
 11
349.4668842129
 21
74.0478357327
 31
0.0
 70
   160
 71
     2
 42
-1.0
  3
SLDDIMSTYLE0
100
AcDbAlignedDimension
 13
363.8026565373
 23
221.5478357327
 33
0.0
 14
333.8026565373
 24
93.5478357327
 34
0.0
 50
0.0
100
AcDbRotatedDimension
  0
DIMENSION
  5
B7
330
1F
100
AcDbEntity
  8
0
  6
Continuous
 62
     7
370
     0
100
AcDbDimension
  2
*D4
 10
407.2042704023
 20
223.5478357327
 30
0.0
 11
407.2042704023
 21
253.5681166484
 31
0.0
 70
   160
 71
     2
 42
-1.0
  3
SLDDIMSTYLE0
100
AcDbAlignedDimension
 13
368.8026565373
 23
282.0478357327
 33
0.0
 14
378.0526565373
 24
223.5478357327
 34
0.0
 50
90.0
100
AcDbRotatedDimension
  0
INSERT
  5
CC
330
1F
100
AcDbEntity
  8
0
  6
Continuous
 62
     7
370
     0
100
AcDbBlockReference
  2
SW_CENTERMARKSYMBOL_0
 10
333.8026565373
 20
146.0478357327
 30
0.0
  0
LINE
  5
CD
330
1F
100
AcDbEntity
  8
0
  6
CENTERX2
 62
     7
370
     0
100
AcDbLine
 10
363.8026565373
 20
274.0478357327
 30
0.0
 11
363.8026565373
 21
221.5478357327
 31
0.0
  0
ARC
  5
CE
330
1F
100
AcDbEntity
  8
0
  6
Continuous
 62
     7
370
    15
100
AcDbCircle
 10
161.6188832723
 20
98.0478357327
 30
0.0
 40
2.000000000000028
100
AcDbArc
 50
180.0
 51
270.0
  0
ARC
  5
CF
330
1F
100
AcDbEntity
  8
0
  6
Continuous
 62
     7
370
    15
100
AcDbCircle
 10
161.6188832723
 20
194.0478357327
 30
0.0
 40
2.0
100
AcDbArc
 50
90.0
 51
180.0
  0
LINE
  5
D0
330
1F
100
AcDbEntity
  8
0
  6
Continuous
 62
     7
370
    15
100
AcDbLine
 10
161.6188832723
 20
96.0478357327
 30
0.0
 11
182.6188832723
 21
96.0478357327
 31
0.0
  0
LINE
  5
D1
330
1F
100
AcDbEntity
  8
0
  6
Continuous
 62
     7
370
    15
100
AcDbLine
 10
182.6188832723
 20
196.0478357327
 30
0.0
 11
161.6188832723
 21
196.0478357327
 31
0.0
  0
ARC
  5
D2
330
1F
100
AcDbEntity
  8
0
  6
Continuous
 62
     7
370
    15
100
AcDbCircle
 10
182.6188832723
 20
98.0478357327
 30
0.0
 40
2.000000000000028
100
AcDbArc
 50
270.0
 51
0.0
  0
ARC
  5
D3
330
1F
100
AcDbEntity
  8
0
  6
Continuous
 62
     7
370
    15
100
AcDbCircle
 10
182.6188832723
 20
194.0478357327
 30
0.0
 40
2.0
100
AcDbArc
 50
0.0
 51
90.0
  0
LINE
  5
D4
330
1F
100
AcDbEntity
  8
0
  6
Continuous
 62
     7
370
    15
100
AcDbLine
 10
209.9664454152
 20
167.4344198404
 30
0.0
 11
209.9664454152
 21
169.2084419737
 31
0.0
  0
LINE
  5
D5
330
1F
100
AcDbEntity
  8
0
  6
Continuous
 62
     7
370
    15
100
AcDbLine
 10
189.1188832723
 20
132.6271268622
 30
0.0
 11
191.1188832723
 21
132.6271268622
 31
0.0
  0
LINE
  5
D6
330
1F
100
AcDbEntity
  8
0
  6
Continuous
 62
     7
370
    15
100
AcDbLine
 10
158.1180363001
 20
136.2978357327
 30
0.0
 11
159.6188832723
 21
136.2978357327
 31
0.0
  0
LINE
  5
D7
330
1F
100
AcDbEntity
  8
0
  6
Continuous
 62
     7
370
    15
100
AcDbLine
 10
159.6188832723
 20
155.7978357327
 30
0.0
 11
158.1180363001
 21
155.7978357327
 31
0.0
  0
LINE
  5
D8
330
1F
100
AcDbEntity
  8
0
  6
Continuous
 62
     7
370
    15
100
AcDbLine
 10
184.6188832723
 20
136.2978357327
 30
0.0
 11
186.1197302444
 21
136.2978357327
 31
0.0
  0
LINE
  5
D9
330
1F
100
AcDbEntity
  8
0
  6
Continuous
 62
     7
370
    15
100
AcDbLine
 10
186.1197302444
 20
155.7978357327
 30
0.0
 11
184.6188832723
 21
155.7978357327
 31
0.0
  0
ARC
  5
DA
330
1F
100
AcDbEntity
  8
0
  6
Continuous
 62
     7
370
    15
100
AcDbCircle
 10
191.6188832723
 20
156.5595956893
 30
0.0
 40
0.5
100
AcDbArc
 50
90.0
 51
180.0
  0
LINE
  5
DB
330
1F
100
AcDbEntity
  8
0
  6
Continuous
 62
     7
370
    15
100
AcDbLine
 10
191.6188832723
 20
157.0595956893
 30
0.0
 11
198.0957108066
 21
157.0595956893
 31
0.0
  0
LINE
  5
DC
330
1F
100
AcDbEntity
  8
0
  6
Continuous
 62
     7
370
    15
100
AcDbLine
 10
155.1188832723
 20
135.904452821
 30
0.0
 11
157.1188832723
 21
135.904452821
 31
0.0
  0
LINE
  5
DD
330
1F
100
AcDbEntity
  8
0
  6
Continuous
 62
     7
370
    15
100
AcDbLine
 10
187.1188832723
 20
135.904452821
 30
0.0
 11
189.1188832723
 21
135.904452821
 31
0.0
  0
LINE
  5
DE
330
1F
100
AcDbEntity
  8
0
  6
Continuous
 62
     7
370
    15
100
AcDbLine
 10
192.7188832723
 20
151.6478357327
 30
0.0
 11
191.1188832723
 21
151.6478357327
 31
0.0
  0
LINE
  5
DF
330
1F
100
AcDbEntity
  8
0
  6
Continuous
 62
     7
370
    15
100
AcDbLine
 10
191.1188832723
 20
140.4478357327
 30
0.0
 11
192.7188832723
 21
140.4478357327
 31
0.0
  0
LINE
  5
E0
330
1F
100
AcDbEntity
  8
0
  6
Continuous
 62
     7
370
    15
100
AcDbLine
 10
192.7188832723
 20
140.4478357327
 30
0.0
 11
193.7188832723
 21
142.4478357327
 31
0.0
  0
LINE
  5
E1
330
1F
100
AcDbEntity
  8
0
  6
Continuous
 62
     7
370
    15
100
AcDbLine
 10
193.7188832723
 20
149.6478357327
 30
0.0
 11
192.7188832723
 21
151.6478357327
 31
0.0
  0
LINE
  5
E2
330
1F
100
AcDbEntity
  8
0
  6
Continuous
 62
     7
370
    15
100
AcDbLine
 10
154.6188832723
 20
140.5478357327
 30
0.0
 11
155.1188832723
 21
140.5478357327
 31
0.0
  0
LINE
  5
E3
330
1F
100
AcDbEntity
  8
0
  6
Continuous
 62
     7
370
    15
100
AcDbLine
 10
155.1188832723
 20
151.5478357327
 30
0.0
 11
154.6188832723
 21
151.5478357327
 31
0.0
  0
ARC
  5
E4
330
1F
100
AcDbEntity
  8
0
  6
Continuous
 62
     7
370
    15
100
AcDbCircle
 10
154.6188832723
 20
142.5478357327
 30
0.0
 40
1.999999999999972
100
AcDbArc
 50
180.0
 51
270.0
  0
ARC
  5
E5
330
1F
100
AcDbEntity
  8
0
  6
Continuous
 62
     7
370
    15
100
AcDbCircle
 10
154.6188832723
 20
149.5478357327
 30
0.0
 40
1.999999999999972
100
AcDbArc
 50
90.0
 51
180.0
  0
LINE
  5
E6
330
1F
100
AcDbEntity
  8
0
  6
Continuous
 62
     7
370
    15
100
AcDbLine
 10
157.1188832723
 20
142.7978357327
 30
0.0
 11
158.1180363001
 21
142.7978357327
 31
0.0
  0
LINE
  5
E7
330
1F
100
AcDbEntity
  8
0
  6
Continuous
 62
     7
370
    15
100
AcDbLine
 10
158.1180363001
 20
149.2978357327
 30
0.0
 11
157.1188832723
 21
149.2978357327
 31
0.0
  0
LINE
  5
E8
330
1F
100
AcDbEntity
  8
0
  6
Continuous
 62
     7
370
    15
100
AcDbLine
 10
186.1197302444
 20
142.7978357327
 30
0.0
 11
187.1188832723
 21
142.7978357327
 31
0.0
  0
LINE
  5
E9
330
1F
100
AcDbEntity
  8
0
  6
Continuous
 62
     7
370
    15
100
AcDbLine
 10
187.1188832723
 20
149.2978357327
 30
0.0
 11
186.1197302444
 21
149.2978357327
 31
0.0
  0
ARC
  5
EA
330
1F
100
AcDbEntity
  8
0
  6
Continuous
 62
     7
370
    15
100
AcDbCircle
 10
150.8614897783
 20
205.6606534783
 30
0.0
 40
3.000000000000059
100
AcDbArc
 50
105.762902768
 51
173.8345209083
  0
ARC
  5
EB
330
1F
100
AcDbEntity
  8
0
  6
Continuous
 62
     7
370
    15
100
AcDbCircle
 10
193.3762767663
 20
205.6606534783
 30
0.0
 40
3.000000000000059
100
AcDbArc
 50
6.1654790917
 51
74.237097232
  0
ARC
  5
EC
330
1F
100
AcDbEntity
  8
0
  6
Continuous
 62
     7
370
    15
100
AcDbCircle
 10
153.6188832723
 20
214.0478357327
 30
0.0
 40
3.000000000000028
100
AcDbArc
 50
90.0
 51
180.0
  0
ARC
  5
ED
330
1F
100
AcDbEntity
  8
0
  6
Continuous
 62
     7
370
    15
100
AcDbCircle
 10
190.6188832723
 20
214.0478357327
 30
0.0
 40
3.000000000000028
100
AcDbArc
 50
0.0
 51
90.0
  0
LINE
  5
EE
330
1F
100
AcDbEntity
  8
0
  6
Continuous
 62
     7
370
    15
100
AcDbLine
 10
193.6188832723
 20
208.5478357327
 30
0.0
 11
193.6188832723
 21
214.0478357327
 31
0.0
  0
LINE
  5
EF
330
1F
100
AcDbEntity
  8
0
  6
Continuous
 62
     7
370
    15
100
AcDbLine
 10
150.6188832723
 20
214.0478357327
 30
0.0
 11
150.6188832723
 21
208.5478357327
 31
0.0
  0
LINE
  5
F0
330
1F
100
AcDbEntity
  8
0
  6
Continuous
 62
     7
370
    15
100
AcDbLine
 10
189.1188832723
 20
132.2751667327
 30
0.0
 11
191.1188832723
 21
132.2751667327
 31
0.0
  0
LINE
  5
F1
330
1F
100
AcDbEntity
  8
0
  6
Continuous
 62
     7
370
    15
100
AcDbLine
 10
147.1188832723
 20
198.9478385127
 30
0.0
 11
147.1188832723
 21
177.4124177353
 31
0.0
  0
LINE
  5
F2
330
1F
100
AcDbEntity
  8
0
  6
Continuous
 62
     7
370
    15
100
AcDbLine
 10
197.1188832723
 20
177.4124177353
 30
0.0
 11
197.1188832723
 21
198.9478385127
 31
0.0
  0
LINE
  5
F3
330
1F
100
AcDbEntity
  8
0
  6
Continuous
 62
     7
370
    15
100
AcDbLine
 10
197.1188832723
 20
198.9478385127
 30
0.0
 11
196.3589243268
 21
205.9828545484
 31
0.0
  0
LINE
  5
F4
330
1F
100
AcDbEntity
  8
0
  6
Continuous
 62
     7
370
    15
100
AcDbLine
 10
147.8788422177
 20
205.9828545484
 30
0.0
 11
147.1188832723
 21
198.9478385127
 31
0.0
  0
LINE
  5
F5
330
1F
100
AcDbEntity
  8
0
  6
Continuous
 62
     7
370
    15
100
AcDbLine
 10
186.3688832723
 20
221.5478357327
 30
0.0
 11
186.3688832723
 21
223.5478357327
 31
0.0
  0
LINE
  5
F6
330
1F
100
AcDbEntity
  8
0
  6
Continuous
 62
     7
370
    15
100
AcDbLine
 10
157.8688832723
 20
223.5478357327
 30
0.0
 11
157.8688832723
 21
221.5478357327
 31
0.0
  0
LINE
  5
F7
330
1F
100
AcDbEntity
  8
0
  6
Continuous
 62
     7
370
    15
100
AcDbLine
 10
183.6188832723
 20
272.0478357327
 30
0.0
 11
183.6188832723
 21
275.0478357327
 31
0.0
  0
LINE
  5
F8
330
1F
100
AcDbEntity
  8
0
  6
Continuous
 62
     7
370
    15
100
AcDbLine
 10
160.6188832723
 20
275.0478357327
 30
0.0
 11
160.6188832723
 21
272.0478357327
 31
0.0
  0
ARC
  5
F9
330
1F
100
AcDbEntity
  8
0
  6
Continuous
 62
     7
370
    15
100
AcDbCircle
 10
161.6188832723
 20
275.0478357327
 30
0.0
 40
1.0
100
AcDbArc
 50
90.0
 51
180.0
  0
ARC
  5
FA
330
1F
100
AcDbEntity
  8
0
  6
Continuous
 62
     7
370
    15
100
AcDbCircle
 10
182.6188832723
 20
275.0478357327
 30
0.0
 40
1.0
100
AcDbArc
 50
0.0
 51
90.0
  0
LINE
  5
FB
330
1F
100
AcDbEntity
  8
0
  6
Continuous
 62
     7
370
    15
100
AcDbLine
 10
183.1188832723
 20
223.5478357327
 30
0.0
 11
183.1188832723
 21
272.0478357327
 31
0.0
  0
LINE
  5
FC
330
1F
100
AcDbEntity
  8
0
  6
Continuous
 62
     7
370
    15
100
AcDbLine
 10
161.1188832723
 20
272.0478357327
 30
0.0
 11
161.1188832723
 21
223.5478357327
 31
0.0
  0
LINE
  5
FD
330
1F
100
AcDbEntity
  8
0
  6
Continuous
 62
     7
370
    15
100
AcDbLine
 10
210.4415460877
 20
135.0450291036
 30
0.0
 11
210.4415460877
 21
136.8190504921
 31
0.0
  0
LINE
  5
FE
330
1F
100
AcDbEntity
  8
0
  6
Continuous
 62
     7
370
    15
100
AcDbLine
 10
178.1188832723
 20
281.0478357327
 30
0.0
 11
177.1188832723
 21
282.0478357327
 31
0.0
  0
LINE
  5
FF
330
1F
100
AcDbEntity
  8
0
  6
Continuous
 62
     7
370
    15
100
AcDbLine
 10
167.1188832723
 20
282.0478357327
 30
0.0
 11
166.1188832723
 21
281.0478357327
 31
0.0
  0
LINE
  5
100
330
1F
100
AcDbEntity
  8
0
  6
Continuous
 62
     7
370
    15
100
AcDbLine
 10
178.1188832723
 20
276.0478357327
 30
0.0
 11
178.1188832723
 21
281.0478357327
 31
0.0
  0
LINE
  5
101
330
1F
100
AcDbEntity
  8
0
  6
Continuous
 62
     7
370
    15
100
AcDbLine
 10
166.1188832723
 20
281.0478357327
 30
0.0
 11
166.1188832723
 21
276.0478357327
 31
0.0
  0
LINE
  5
102
330
1F
100
AcDbEntity
  8
0
  6
Continuous
 62
     7
370
    15
100
AcDbLine
 10
159.6188832723
 20
146.0478357327
 30
0.0
 11
159.6188832723
 21
194.0478357327
 31
0.0
  0
LINE
  5
103
330
1F
100
AcDbEntity
  8
0
  6
Continuous
 62
     7
370
    15
100
AcDbLine
 10
159.6188832723
 20
98.0478357327
 30
0.0
 11
159.6188832723
 21
146.0478357327
 31
0.0
  0
LINE
  5
104
330
1F
100
AcDbEntity
  8
0
  6
Continuous
 62
     7
370
    15
100
AcDbLine
 10
184.6188832723
 20
146.0478357327
 30
0.0
 11
184.6188832723
 21
194.0478357327
 31
0.0
  0
LINE
  5
105
330
1F
100
AcDbEntity
  8
0
  6
Continuous
 62
     7
370
    15
100
AcDbLine
 10
184.6188832723
 20
98.0478357327
 30
0.0
 11
184.6188832723
 21
146.0478357327
 31
0.0
  0
LINE
  5
106
330
1F
100
AcDbEntity
  8
0
  6
Continuous
 62
     7
370
    15
100
AcDbLine
 10
197.1105945928
 20
173.3705900045
 30
0.0
 11
195.1188771367
 21
173.3705900045
 31
0.0
  0
LINE
  5
107
330
1F
100
AcDbEntity
  8
0
  6
Continuous
 62
     7
370
    15
100
AcDbLine
 10
197.1105945928
 20
175.1446124184
 30
0.0
 11
195.1188771367
 21
175.1446124184
 31
0.0
  0
LWPOLYLINE
  5
108
330
1F
100
AcDbEntity
  8
0
  6
Continuous
 62
     7
370
    15
100
AcDbPolyline
 90
       24
 70
   128
 43
0.0
 10
198.0957108164
 20
161.5157059317
 10
199.7900100883
 20
161.6286137994
 10
201.4368008469
 20
161.8444639746
 10
203.0068839698
 20
162.1594292342
 10
204.472420432
 20
162.5679249531
 10
205.8074249174
 20
163.0627081245
 10
206.9882265625
 20
163.6350057855
 10
207.9938886626
 20
164.2746705695
 10
208.8065798993
 20
164.9703606287
 10
209.4118905057
 20
165.7097407353
 10
209.7990877653
 20
166.4797009966
 10
209.9613063127
 20
167.2665893055
 10
209.8956698631
 20
168.0564534049
 10
209.6033422115
 20
168.8352882742
 10
209.0895065974
 20
169.5892844514
 10
208.3632738011
 20
170.3050728872
 10
207.4375206013
 20
170.9699619911
 10
206.3286614581
 20
171.5721626647
 10
205.0563574689
 20
172.1009973334
 10
203.6431677595
 20
172.5470892698
 10
202.1141494897
 20
172.9025288515
 10
200.4964135667
 20
173.1610138061
 10
198.8186439437
 20
173.3179609565
 10
197.1105890269
 20
173.3705874847
  0
LWPOLYLINE
  5
109
330
1F
100
AcDbEntity
  8
0
  6
Continuous
 62
     7
370
    15
100
AcDbPolyline
 90
       13
 70
   128
 43
0.0
 10
197.1105945928
 20
175.144609618
 10
198.8186492204
 20
175.0919827632
 10
200.4964184692
 20
174.9350353214
 10
202.114153948
 20
174.676550115
 10
203.6431717196
 20
174.3211103243
 10
205.0563608932
 20
173.8750182236
 10
206.3286643257
 20
173.3461834359
 10
207.4375229074
 20
172.7439826882
 10
208.3632755565
 20
172.0790935534
 10
209.0895078272
 20
171.363305127
 10
209.6033429539
 20
170.6093089959
 10
209.8956701674
 20
169.8304742047
 10
209.9664454152
 20
169.2084419737
  0
ARC
  5
10A
330
1F
100
AcDbEntity
  8
0
  6
Continuous
 62
     7
370
    15
100
AcDbCircle
 10
194.9529084325
 20
162.6192156072
 30
0.0
 40
10.75265243071807
100
AcDbArc
 50
89.1155964569
 51
110.8894223412
  0
LINE
  5
10B
330
1F
100
AcDbEntity
  8
0
  6
Continuous
 62
     7
370
    15
100
AcDbLine
 10
198.0957108083
 20
157.5115510067
 30
0.0
 11
198.0957108164
 21
161.5157059317
 31
0.0
  0
ARC
  5
10C
330
1F
100
AcDbEntity
  8
0
  6
Continuous
 62
     7
370
    15
100
AcDbCircle
 10
191.7365178577
 20
171.8399059501
 30
0.0
 40
2.671591562962875
100
AcDbArc
 50
103.3669069792
 51
168.4652000871
  0
ARC
  5
10D
330
1F
100
AcDbEntity
  8
0
  6
Continuous
 62
     7
370
    15
100
AcDbCircle
 10
194.952926325
 20
164.3931678735
 30
0.0
 40
10.75272521146036
100
AcDbArc
 50
89.115697795
 51
110.8893763801
  0
ARC
  5
10E
330
1F
100
AcDbEntity
  8
0
  6
Continuous
 62
     7
370
    15
100
AcDbCircle
 10
191.7365255076
 20
170.0658747328
 30
0.0
 40
2.67160099661144
100
AcDbArc
 50
103.367027535
 51
168.4650292189
  0
LINE
  5
10F
330
1F
100
AcDbEntity
  8
0
  6
Continuous
 62
     7
370
    15
100
AcDbLine
 10
189.1188832723
 20
172.3741256208
 30
0.0
 11
189.1188832723
 21
170.6001040963
 31
0.0
  0
LINE
  5
110
330
1F
100
AcDbEntity
  8
0
  6
Continuous
 62
     7
370
    15
100
AcDbLine
 10
189.1188832723
 20
170.6001040963
 30
0.0
 11
189.1188832723
 21
168.6076839164
 31
0.0
  0
SPLINE
  5
111
330
1F
100
AcDbEntity
  8
0
  6
Continuous
 62
     7
370
    15
100
AcDbSpline
210
0.0
220
0.0
230
1.0
 70
     8
 71
     3
 72
    20
 73
    16
 74
     0
 42
0.00000001
 43
0.00000001
 40
0.0
 40
0.0
 40
0.0
 40
0.0
 40
0.2499999999999989
 40
0.2499999999999989
 40
0.4999999999999979
 40
0.4999999999999979
 40
0.7499999999999969
 40
0.7499999999999969
 40
0.8749999999999973
 40
0.8749999999999973
 40
0.9374999999999992
 40
0.9374999999999992
 40
0.9687499999999996
 40
0.9687499999999996
 40
1.0
 40
1.0
 40
1.0
 40
1.0
 10
191.1188832722647
 20
167.3984424742231
 30
0.0
 10
191.1188832722647
 20
167.533924924506
 30
0.0
 10
191.1396967265468
 20
167.6605395877093
 30
0.0
 10
191.2026483755257
 20
167.8991709029469
 30
0.0
 10
191.2446977696706
 20
168.0087610414327
 30
0.0
 10
191.3390029355539
 20
168.2091718776352
 30
0.0
 10
191.3916150644051
 20
168.3005473883162
 30
0.0
 10
191.4748925189317
 20
168.4255572575802
 30
0.0
 10
191.5033951034293
 20
168.4651823046322
 30
0.0
 10
191.5464997659883
 20
168.5211191105333
 30
0.0
 10
191.560941207792
 20
168.5392060377951
 30
0.0
 10
191.5826928432509
 20
168.5655056240397
 30
0.0
 10
191.5899540838525
 20
168.5741344221521
 30
0.0
 10
191.6045576121472
 20
168.5911052420302
 30
0.0
 10
191.6129749391804
 20
168.5992732148243
 30
0.0
 10
191.6188832722647
 20
168.6076786275383
 30
0.0
  0
LINE
  5
112
330
1F
100
AcDbEntity
  8
0
  6
Continuous
 62
     7
370
    15
100
AcDbLine
 10
191.1188832723
 20
167.3984424742
 30
0.0
 11
191.1188832723
 21
167.0973907983
 31
0.0
  0
LINE
  5
113
330
1F
100
AcDbEntity
  8
0
  6
Continuous
 62
     7
370
    15
100
AcDbLine
 10
189.1188832723
 20
168.6076839164
 30
0.0
 11
189.1188832723
 21
167.0973907983
 31
0.0
  0
LINE
  5
114
330
1F
100
AcDbEntity
  8
0
  6
Continuous
 62
     7
370
    15
100
AcDbLine
 10
191.1188832723
 20
167.0973907983
 30
0.0
 11
191.1188832723
 21
163.0543478957
 31
0.0
  0
LINE
  5
115
330
1F
100
AcDbEntity
  8
0
  6
Continuous
 62
     7
370
    15
100
AcDbLine
 10
189.1188832723
 20
167.0973907983
 30
0.0
 11
189.1188832723
 21
163.0543478957
 31
0.0
  0
LINE
  5
116
330
1F
100
AcDbEntity
  8
0
  6
Continuous
 62
     7
370
    15
100
AcDbLine
 10
191.1188832723
 20
163.0543478957
 30
0.0
 11
191.1188832723
 21
161.2661863782
 31
0.0
  0
LINE
  5
117
330
1F
100
AcDbEntity
  8
0
  6
Continuous
 62
     7
370
    15
100
AcDbLine
 10
189.1188832723
 20
163.0543478957
 30
0.0
 11
189.1188832723
 21
161.2661863782
 31
0.0
  0
LINE
  5
118
330
1F
100
AcDbEntity
  8
0
  6
Continuous
 62
     7
370
    15
100
AcDbLine
 10
191.1188832723
 20
161.2661863782
 30
0.0
 11
191.1188832723
 21
148.8804012006
 31
0.0
  0
LINE
  5
119
330
1F
100
AcDbEntity
  8
0
  6
Continuous
 62
     7
370
    15
100
AcDbLine
 10
189.1188832723
 20
161.2661863782
 30
0.0
 11
189.1188832723
 21
148.8804012006
 31
0.0
  0
LINE
  5
11A
330
1F
100
AcDbEntity
  8
0
  6
Continuous
 62
     7
370
    15
100
AcDbLine
 10
191.1188832723
 20
148.8804012006
 30
0.0
 11
191.1188832723
 21
147.5044360021
 31
0.0
  0
LINE
  5
11B
330
1F
100
AcDbEntity
  8
0
  6
Continuous
 62
     7
370
    15
100
AcDbLine
 10
189.1188832723
 20
148.8804012006
 30
0.0
 11
189.1188832723
 21
147.5044360021
 31
0.0
  0
LINE
  5
11C
330
1F
100
AcDbEntity
  8
0
  6
Continuous
 62
     7
370
    15
100
AcDbLine
 10
191.1188832723
 20
147.5044360021
 30
0.0
 11
191.1188832723
 21
132.6271268622
 31
0.0
  0
LINE
  5
11D
330
1F
100
AcDbEntity
  8
0
  6
Continuous
 62
     7
370
    15
100
AcDbLine
 10
189.1188832723
 20
147.5044360021
 30
0.0
 11
189.1188832723
 21
132.6271268622
 31
0.0
  0
LINE
  5
11E
330
1F
100
AcDbEntity
  8
0
  6
Continuous
 62
     7
370
    15
100
AcDbLine
 10
158.1180363001
 20
146.0478357327
 30
0.0
 11
158.1180363001
 21
155.7978357327
 31
0.0
  0
LINE
  5
11F
330
1F
100
AcDbEntity
  8
0
  6
Continuous
 62
     7
370
    15
100
AcDbLine
 10
158.1180363001
 20
136.2978357327
 30
0.0
 11
158.1180363001
 21
146.0478357327
 31
0.0
  0
LINE
  5
120
330
1F
100
AcDbEntity
  8
0
  6
Continuous
 62
     7
370
    15
100
AcDbLine
 10
186.1197302444
 20
146.0478357327
 30
0.0
 11
186.1197302444
 21
155.7978357327
 31
0.0
  0
LINE
  5
121
330
1F
100
AcDbEntity
  8
0
  6
Continuous
 62
     7
370
    15
100
AcDbLine
 10
186.1197302444
 20
136.2978357327
 30
0.0
 11
186.1197302444
 21
146.0478357327
 31
0.0
  0
LINE
  5
122
330
1F
100
AcDbEntity
  8
0
  6
Continuous
 62
     7
370
    15
100
AcDbLine
 10
198.0957108066
 20
157.0595956893
 30
0.0
 11
198.0957108083
 21
157.5115510067
 31
0.0
  0
LINE
  5
123
330
1F
100
AcDbEntity
  8
0
  6
Continuous
 62
     7
370
    15
100
AcDbLine
 10
155.1188832723
 20
144.6469218986
 30
0.0
 11
155.1188832723
 21
135.904452821
 31
0.0
  0
LINE
  5
124
330
1F
100
AcDbEntity
  8
0
  6
Continuous
 62
     7
370
    15
100
AcDbLine
 10
157.1188832723
 20
144.6469218986
 30
0.0
 11
157.1188832723
 21
135.904452821
 31
0.0
  0
LINE
  5
125
330
1F
100
AcDbEntity
  8
0
  6
Continuous
 62
     7
370
    15
100
AcDbLine
 10
187.1188832723
 20
135.904452821
 30
0.0
 11
187.1188832723
 21
144.6469218986
 31
0.0
  0
LINE
  5
126
330
1F
100
AcDbEntity
  8
0
  6
Continuous
 62
     7
370
    15
100
AcDbLine
 10
187.1188832723
 20
199.6718912157
 30
0.0
 11
157.1188832723
 21
199.6718912157
 31
0.0
  0
LINE
  5
127
330
1F
100
AcDbEntity
  8
0
  6
Continuous
 62
     7
370
    15
100
AcDbLine
 10
189.1188832723
 20
202.3943297814
 30
0.0
 11
155.1188832723
 21
202.3943297814
 31
0.0
  0
LINE
  5
128
330
1F
100
AcDbEntity
  8
0
  6
Continuous
 62
     7
370
    15
100
AcDbLine
 10
189.1188832723
 20
202.3943297814
 30
0.0
 11
189.1188832723
 21
172.3741256208
 31
0.0
  0
LINE
  5
129
330
1F
100
AcDbEntity
  8
0
  6
Continuous
 62
     7
370
    15
100
AcDbLine
 10
187.1188832723
 20
144.6469218986
 30
0.0
 11
187.1188832723
 21
199.6718912157
 31
0.0
  0
LINE
  5
12A
330
1F
100
AcDbEntity
  8
0
  6
Continuous
 62
     7
370
    15
100
AcDbLine
 10
157.1188832723
 20
199.6718912157
 30
0.0
 11
157.1188832723
 21
144.6469218986
 31
0.0
  0
LINE
  5
12B
330
1F
100
AcDbEntity
  8
0
  6
Continuous
 62
     7
370
    15
100
AcDbLine
 10
155.1188832723
 20
202.3943297814
 30
0.0
 11
155.1188832723
 21
144.6469218986
 31
0.0
  0
LINE
  5
12C
330
1F
100
AcDbEntity
  8
0
  6
Continuous
 62
     7
370
    15
100
AcDbLine
 10
161.3034545883
 20
205.9828545484
 30
0.0
 11
155.1188832723
 21
205.9828545484
 31
0.0
  0
ELLIPSE
  5
12D
330
1F
100
AcDbEntity
  8
0
  6
Continuous
 62
     7
370
    15
100
AcDbEllipse
 10
172.1188832723
 20
210.5830117659
 30
0.0
 11
23.73654447658805
 21
0.0
 31
0.0
210
0.0
220
0.0
230
1.0
 40
0.2177139406
 41
4.239292744782034
 42
5.185485215987376
  0
LINE
  5
12E
330
1F
100
AcDbEntity
  8
0
  6
Continuous
 62
     7
370
    15
100
AcDbLine
 10
189.1188832723
 20
205.9828545484
 30
0.0
 11
182.9343119562
 21
205.9828545484
 31
0.0
  0
LINE
  5
12F
330
1F
100
AcDbEntity
  8
0
  6
Continuous
 62
     7
370
    15
100
AcDbLine
 10
189.1188832723
 20
205.9828545484
 30
0.0
 11
189.1188832723
 21
202.3943297814
 31
0.0
  0
LINE
  5
130
330
1F
100
AcDbEntity
  8
0
  6
Continuous
 62
     7
370
    15
100
AcDbLine
 10
155.1188832723
 20
205.9828545484
 30
0.0
 11
155.1188832723
 21
202.3943297814
 31
0.0
  0
LINE
  5
131
330
1F
100
AcDbEntity
  8
0
  6
Continuous
 62
     7
370
    15
100
AcDbLine
 10
187.1188832723
 20
199.5826340051
 30
0.0
 11
157.1188832723
 21
199.5826340051
 31
0.0
  0
LINE
  5
132
330
1F
100
AcDbEntity
  8
0
  6
Continuous
 62
     7
370
    15
100
AcDbLine
 10
192.7188832723
 20
140.4478357327
 30
0.0
 11
192.7188832723
 21
151.6478357327
 31
0.0
  0
LINE
  5
133
330
1F
100
AcDbEntity
  8
0
  6
Continuous
 62
     7
370
    15
100
AcDbLine
 10
193.7188832723
 20
149.6478357327
 30
0.0
 11
193.7188832723
 21
142.4478357327
 31
0.0
  0
LINE
  5
134
330
1F
100
AcDbEntity
  8
0
  6
Continuous
 62
     7
370
    15
100
AcDbLine
 10
152.6188832723
 20
142.5478361543
 30
0.0
 11
152.6188832723
 21
149.5478357327
 31
0.0
  0
LINE
  5
135
330
1F
100
AcDbEntity
  8
0
  6
Continuous
 62
     7
370
    15
100
AcDbLine
 10
198.0957107885
 20
150.1047198395
 30
0.0
 11
198.0957107994
 21
157.0595956893
 31
0.0
  0
LINE
  5
136
330
1F
100
AcDbEntity
  8
0
  6
Continuous
 62
     7
370
    15
100
AcDbLine
 10
172.1188832723
 20
208.5478357327
 30
0.0
 11
194.1912483178
 21
208.5478357327
 31
0.0
  0
LINE
  5
137
330
1F
100
AcDbEntity
  8
0
  6
Continuous
 62
     7
370
    15
100
AcDbLine
 10
150.0465182267
 20
208.5478357327
 30
0.0
 11
172.1188832723
 21
208.5478357327
 31
0.0
  0
LINE
  5
138
330
1F
100
AcDbEntity
  8
0
  6
Continuous
 62
     7
370
    15
100
AcDbLine
 10
172.1188832723
 20
217.0478357327
 30
0.0
 11
190.6188832723
 21
217.0478357327
 31
0.0
  0
LINE
  5
139
330
1F
100
AcDbEntity
  8
0
  6
Continuous
 62
     7
370
    15
100
AcDbLine
 10
153.6188832723
 20
217.0478357327
 30
0.0
 11
172.1188832723
 21
217.0478357327
 31
0.0
  0
SPLINE
  5
13A
330
1F
100
AcDbEntity
  8
0
  6
Continuous
 62
     7
370
    15
100
AcDbSpline
210
0.0
220
0.0
230
1.0
 70
     8
 71
     3
 72
    14
 73
    10
 74
     0
 42
0.00000001
 43
0.00000001
 40
0.0
 40
0.0
 40
0.0
 40
0.0
 40
0.25
 40
0.25
 40
0.5
 40
0.5
 40
0.75
 40
0.75
 40
1.0
 40
1.0
 40
1.0
 40
1.0
 10
154.2617404151218
 20
198.9482713193128
 30
0.0
 10
154.3986667214234
 20
198.9590000924326
 30
0.0
 10
154.5197526800514
 20
198.9705663848907
 30
0.0
 10
154.7315995523784
 20
198.9953016126053
 30
0.0
 10
154.8230674839311
 20
199.0086185655663
 30
0.0
 10
154.969735501135
 20
199.0361955281388
 30
0.0
 10
155.0249464763544
 20
199.0503632609322
 30
0.0
 10
155.0996264136798
 20
199.079446278329
 30
0.0
 10
155.1188832722646
 20
199.094630049185
 30
0.0
 10
155.1188832722647
 20
199.1094063136836
 30
0.0
  0
SPLINE
  5
13B
330
1F
100
AcDbEntity
  8
0
  6
Continuous
 62
     7
370
    15
100
AcDbSpline
210
0.0
220
0.0
230
1.0
 70
     8
 71
     3
 72
     8
 73
     4
 74
     0
 42
0.00000001
 43
0.00000001
 40
0.0
 40
0.0
 40
0.0
 40
0.0
 40
0.0000158335681026
 40
0.0000158335681026
 40
0.0000158335681026
 40
0.0000158335681026
 10
154.2617404151218
 20
198.9482713193128
 30
0.0
 10
154.258052226477
 20
198.9479823336513
 30
0.0
 10
154.254358288059
 20
198.9478385127277
 30
0.0
 10
154.2506669457668
 20
198.9478385127277
 30
0.0
  0
SPLINE
  5
13C
330
1F
100
AcDbEntity
  8
0
  6
Continuous
 62
     7
370
    15
100
AcDbSpline
210
0.0
220
0.0
230
1.0
 70
     8
 71
     3
 72
    10
 73
     6
 74
     0
 42
0.00000001
 43
0.00000001
 40
0.0
 40
0.0
 40
0.0
 40
0.0
 40
0.5
 40
0.5
 40
1.0
 40
1.0
 40
1.0
 40
1.0
 10
154.2613070699587
 20
200.2343245476019
 30
0.0
 10
154.4046760365688
 20
201.1876332558451
 30
0.0
 10
154.5208771114091
 20
202.1440139749777
 30
0.0
 10
154.7180801328173
 20
204.0607555566493
 30
0.0
 10
154.798679857958
 20
205.0213286785846
 30
0.0
 10
154.8651242678607
 20
205.9828545483984
 30
0.0
  0
SPLINE
  5
13D
330
1F
100
AcDbEntity
  8
0
  6
Continuous
 62
     7
370
    15
100
AcDbSpline
210
0.0
220
0.0
230
1.0
 70
    24
 71
     3
 72
    10
 73
     6
 74
     0
 42
0.00000001
 43
0.00000001
 40
0.0
 40
0.0
 40
0.0
 40
0.0
 40
0.5
 40
0.5
 40
1.0
 40
1.0
 40
1.0
 40
1.0
 10
154.8651242678607
 20
205.9828545483984
 30
0.0
 10
154.9492762218511
 20
205.9828545483984
 30
0.0
 10
155.0120907768117
 20
205.9828545483984
 30
0.0
 10
155.0969436824632
 20
205.9828545483984
 30
0.0
 10
155.1188832722646
 20
205.9828545483984
 30
0.0
 10
155.1188832722647
 20
205.9828545483984
 30
0.0
  0
SPLINE
  5
13E
330
1F
100
AcDbEntity
  8
0
  6
Continuous
 62
     7
370
    15
100
AcDbSpline
210
0.0
220
0.0
230
1.0
 70
     8
 71
     3
 72
    10
 73
     6
 74
     0
 42
0.00000001
 43
0.00000001
 40
0.0
 40
0.0
 40
0.0
 40
0.0
 40
0.5
 40
0.5
 40
1.0
 40
1.0
 40
1.0
 40
1.0
 10
189.3726422766686
 20
205.9828545483984
 30
0.0
 10
189.439081599195
 20
205.0214022986824
 30
0.0
 10
189.5196378218221
 20
204.0612918946069
 30
0.0
 10
189.716832757382
 20
202.144500814793
 30
0.0
 10
189.8331148384521
 20
201.1874714741702
 30
0.0
 10
189.9764594745664
 20
200.2343245476123
 30
0.0
  0
SPLINE
  5
13F
330
1F
100
AcDbEntity
  8
0
  6
Continuous
 62
     7
370
    15
100
AcDbSpline
210
0.0
220
0.0
230
1.0
 70
     8
 71
     3
 72
     8
 73
     4
 74
     0
 42
0.00000001
 43
0.00000001
 40
0.0
 40
0.0
 40
0.0
 40
0.0
 40
0.0000158335681026
 40
0.0000158335681026
 40
0.0000158335681026
 40
0.0000158335681026
 10
189.9870995987625
 20
198.9478385127276
 30
0.0
 10
189.9834082564704
 20
198.9478385127276
 30
0.0
 10
189.9797143180524
 20
198.9479823336513
 30
0.0
 10
189.9760261294075
 20
198.9482713193128
 30
0.0
  0
SPLINE
  5
140
330
1F
100
AcDbEntity
  8
0
  6
Continuous
 62
     7
370
    15
100
AcDbSpline
210
0.0
220
0.0
230
1.0
 70
     8
 71
     3
 72
    14
 73
    10
 74
     0
 42
0.00000001
 43
0.00000001
 40
0.0
 40
0.0
 40
0.0
 40
0.0
 40
0.4999999999999998
 40
0.4999999999999998
 40
0.7500000000000006
 40
0.7500000000000006
 40
0.8750000000000002
 40
0.8750000000000002
 40
1.0
 40
1.0
 40
1.0
 40
1.0
 10
189.9760261294075
 20
198.9482713193128
 30
0.0
 10
189.7011277143331
 20
198.969810808736
 30
0.0
 10
189.4896842568617
 20
198.9945240976226
 30
0.0
 10
189.2673009927633
 20
199.0363305585894
 30
0.0
 10
189.2121217716611
 20
199.0505749312448
 30
0.0
 10
189.1564706849439
 20
199.0723384073681
 30
0.0
 10
189.1424611565484
 20
199.0796619350725
 30
0.0
 10
189.1236589217933
 20
199.0944490902009
 30
0.0
 10
189.1188832722647
 20
199.1020248992949
 30
0.0
 10
189.1188832722647
 20
199.1094063136836
 30
0.0
  0
SPLINE
  5
141
330
1F
100
AcDbEntity
  8
0
  6
Continuous
 62
     7
370
    15
100
AcDbSpline
210
0.0
220
0.0
230
1.0
 70
    24
 71
     3
 72
    10
 73
     6
 74
     0
 42
0.00000001
 43
0.00000001
 40
0.0
 40
0.0
 40
0.0
 40
0.0
 40
0.5
 40
0.5
 40
1.0
 40
1.0
 40
1.0
 40
1.0
 10
189.1188832722647
 20
205.9828545483984
 30
0.0
 10
189.1188832722647
 20
205.9828545483984
 30
0.0
 10
189.1404120045578
 20
205.9828545483984
 30
0.0
 10
189.2248654419379
 20
205.9828545483984
 30
0.0
 10
189.2884929978729
 20
205.9828545483984
 30
0.0
 10
189.3726422766686
 20
205.9828545483984
 30
0.0
  0
LINE
  5
142
330
1F
100
AcDbEntity
  8
0
  6
Continuous
 62
     7
370
    15
100
AcDbLine
 10
198.0957107852
 20
146.5398768395
 30
0.0
 11
198.0957107885
 21
150.1047198395
 31
0.0
  0
LINE
  5
143
330
1F
100
AcDbEntity
  8
0
  6
Continuous
 62
     7
370
    15
100
AcDbLine
 10
191.1188832723
 20
132.6271268622
 30
0.0
 11
191.1188832723
 21
132.2751667327
 31
0.0
  0
LINE
  5
144
330
1F
100
AcDbEntity
  8
0
  6
Continuous
 62
     7
370
    15
100
AcDbLine
 10
189.1188832723
 20
132.6271268622
 30
0.0
 11
189.1188832723
 21
132.2751667327
 31
0.0
  0
LINE
  5
145
330
1F
100
AcDbEntity
  8
0
  6
Continuous
 62
     7
370
    15
100
AcDbLine
 10
147.1188832723
 20
198.9478385127
 30
0.0
 11
154.2506669458
 21
198.9478385127
 31
0.0
  0
ELLIPSE
  5
146
330
1F
100
AcDbEntity
  8
0
  6
Continuous
 62
     7
370
    15
100
AcDbEllipse
 10
172.1188832723
 20
177.4124177353
 30
0.0
 11
0.0
 21
40.82756175314802
 31
0.0
210
0.0
220
0.0
230
1.0
 40
0.6123314478
 41
1.570796326794893
 42
2.278419804456482
  0
LINE
  5
147
330
1F
100
AcDbEntity
  8
0
  6
Continuous
 62
     7
370
    15
100
AcDbLine
 10
189.9870995988
 20
198.9478385127
 30
0.0
 11
197.1188832723
 21
198.9478385127
 31
0.0
  0
ELLIPSE
  5
148
330
1F
100
AcDbEntity
  8
0
  6
Continuous
 62
     7
370
    15
100
AcDbEllipse
 10
172.1188832723
 20
177.4124177353
 30
0.0
 11
0.0
 21
40.82756175314802
 31
0.0
210
0.0
220
0.0
230
1.0
 40
0.6123314478
 41
4.656814437005263
 42
4.712388980384695
  0
LINE
  5
149
330
1F
100
AcDbEntity
  8
0
  6
Continuous
 62
     7
370
    15
100
AcDbLine
 10
187.1188832723
 20
199.0765286204
 30
0.0
 11
157.1188832723
 21
199.0765286204
 31
0.0
  0
LINE
  5
14A
330
1F
100
AcDbEntity
  8
0
  6
Continuous
 62
     7
370
    15
100
AcDbLine
 10
198.0957107832
 20
145.0443383141
 30
0.0
 11
198.0957107852
 21
146.5398768395
 31
0.0
  0
SPLINE
  5
14B
330
1F
100
AcDbEntity
  8
0
  6
Continuous
 62
     7
370
    15
100
AcDbSpline
210
0.0
220
0.0
230
1.0
 70
     8
 71
     3
 72
    12
 73
     8
 74
     0
 42
0.00000001
 43
0.00000001
 40
0.0
 40
0.0
 40
0.0
 40
0.0
 40
0.5000000000000032
 40
0.5000000000000032
 40
0.7500000000000016
 40
0.7500000000000016
 40
1.0
 40
1.0
 40
1.0
 40
1.0
 10
191.6188832722647
 20
135.0810537897496
 30
0.0
 10
191.5028133633161
 20
135.2418404562872
 30
0.0
 10
191.3854813515067
 20
135.3677358824489
 30
0.0
 10
191.2430504893041
 20
135.4976878943722
 30
0.0
 10
191.201590600207
 20
135.5308606928448
 30
0.0
 10
191.1397703610043
 20
135.5763716713939
 30
0.0
 10
191.1188832722647
 20
135.5887099775813
 30
0.0
 10
191.1188832722647
 20
135.5894676692125
 30
0.0
  0
LWPOLYLINE
  5
14C
330
1F
100
AcDbEntity
  8
0
  6
Continuous
 62
     7
370
    15
100
AcDbPolyline
 90
       24
 70
   128
 43
0.0
 10
198.0957842763
 20
129.1231252343
 10
199.7957148949
 20
129.2056187249
 10
201.4568284924
 20
129.3916886481
 10
203.0496610973
 20
129.6780345921
 10
204.545959871
 20
130.059577501
 10
205.919184242
 20
130.5295497646
 10
207.1449766687
 20
131.0796152588
 10
208.2015946807
 20
131.7000172069
 10
209.0702965357
 20
132.3797512412
 10
209.735673651
 20
133.1067605918
 10
210.1859239122
 20
133.8681499439
 10
210.4130610139
 20
134.6504141681
 10
210.4130561158
 20
135.4396778674
 10
210.1859093049
 20
136.2219414916
 10
209.7356495935
 20
136.9833296543
 10
209.0702634548
 20
137.7103372472
 10
208.201553163
 20
138.3900689866
 10
207.1449274507
 20
139.0104681436
 10
205.9191281968
 20
139.5605303996
 10
204.5458979926
 20
140.0304990357
 10
203.0495944833
 20
140.4120379919
 10
201.4567583244
 20
140.6983797282
 10
199.7956424175
 20
140.8844452633
 10
198.095710775
 20
140.9669334747
  0
LINE
  5
14D
330
1F
100
AcDbEntity
  8
0
  6
Continuous
 62
     7
370
    15
100
AcDbLine
 10
198.0957842763
 20
129.1231252343
 30
0.0
 11
195.1188832723
 21
129.1231247325
 31
0.0
  0
LWPOLYLINE
  5
14E
330
1F
100
AcDbEntity
  8
0
  6
Continuous
 62
     7
370
    15
100
AcDbPolyline
 90
        9
 70
   128
 43
0.0
 10
189.1188832723
 20
131.8936166178
 10
189.2341715898
 20
131.3531204637
 10
189.5756060772
 20
130.8333952738
 10
190.1300655984
 20
130.3544137955
 10
190.8762425851
 20
129.9345830185
 10
191.7854618741
 20
129.5900368041
 10
192.8227826781
 20
129.33401587
 10
193.9483413402
 20
129.1763589573
 10
195.1188832723
 20
129.1231247325
  0
LINE
  5
14F
330
1F
100
AcDbEntity
  8
0
  6
Continuous
 62
     7
370
    15
100
AcDbLine
 10
198.095710775
 20
140.9669334747
 30
0.0
 11
198.0957107832
 21
145.0443383141
 31
0.0
  0
LINE
  5
150
330
1F
100
AcDbEntity
  8
0
  6
Continuous
 62
     7
370
    15
100
AcDbLine
 10
189.1188832723
 20
132.2751667327
 30
0.0
 11
189.1188832723
 21
131.8936166178
 31
0.0
  0
LINE
  5
151
330
1F
100
AcDbEntity
  8
0
  6
Continuous
 62
     7
370
    15
100
AcDbLine
 10
157.8688832723
 20
221.5478357327
 30
0.0
 11
186.3688832723
 21
221.5478357327
 31
0.0
  0
LINE
  5
152
330
1F
100
AcDbEntity
  8
0
  6
Continuous
 62
     7
370
    15
100
AcDbLine
 10
157.8688832723
 20
223.5478357327
 30
0.0
 11
186.3688832723
 21
223.5478357327
 31
0.0
  0
LINE
  5
153
330
1F
100
AcDbEntity
  8
0
  6
Continuous
 62
     7
370
    15
100
AcDbLine
 10
160.6188832723
 20
272.0478357327
 30
0.0
 11
183.6188832723
 21
272.0478357327
 31
0.0
  0
LINE
  5
154
330
1F
100
AcDbEntity
  8
0
  6
Continuous
 62
     7
370
    15
100
AcDbLine
 10
161.6188834791
 20
276.0478357327
 30
0.0
 11
182.6188832723
 21
276.0478357327
 31
0.0
  0
LINE
  5
155
330
1F
100
AcDbEntity
  8
0
  6
Continuous
 62
     7
370
    15
100
AcDbLine
 10
161.1492281577
 20
221.5478357327
 30
0.0
 11
161.1492281577
 21
217.0478357327
 31
0.0
  0
LINE
  5
156
330
1F
100
AcDbEntity
  8
0
  6
Continuous
 62
     7
370
    15
100
AcDbLine
 10
166.634055715
 20
221.5478357327
 30
0.0
 11
166.634055715
 21
217.0478357327
 31
0.0
  0
LINE
  5
157
330
1F
100
AcDbEntity
  8
0
  6
Continuous
 62
     7
370
    15
100
AcDbLine
 10
177.6037108296
 20
221.5478357327
 30
0.0
 11
177.6037108296
 21
217.0478357327
 31
0.0
  0
LINE
  5
158
330
1F
100
AcDbEntity
  8
0
  6
Continuous
 62
     7
370
    15
100
AcDbLine
 10
183.0885383869
 20
221.5478357327
 30
0.0
 11
183.0885383869
 21
217.0478357327
 31
0.0
  0
LWPOLYLINE
  5
159
330
1F
100
AcDbEntity
  8
0
  6
Continuous
 62
     7
370
    15
100
AcDbPolyline
 90
       13
 70
   128
 43
0.0
 10
198.095710775
 20
142.7409545711
 10
199.7956455687
 20
142.6584653384
 10
201.4567644259
 20
142.4723992072
 10
203.0496031721
 20
142.1860565342
 10
204.5459087541
 20
141.8045163364
 10
205.9191403805
 20
141.334546201
 10
207.1449402902
 20
140.7844822458
 10
208.2015657988
 20
140.1640812562
 10
209.0702749612
 20
139.4843476244
 10
209.7356590073
 20
138.757338158
 10
210.185915656
 20
137.9959482219
 10
210.4130584584
 20
137.2136830064
 10
210.4415460877
 20
136.8190504921
  0
LINE
  5
15A
330
1F
100
AcDbEntity
  8
0
  6
Continuous
 62
     7
370
    15
100
AcDbLine
 10
167.1188832723
 20
282.0478357327
 30
0.0
 11
177.1188832723
 21
282.0478357327
 31
0.0
  0
LINE
  5
15B
330
1F
100
AcDbEntity
  8
0
  6
Continuous
 62
     7
370
    15
100
AcDbLine
 10
178.1188832723
 20
281.0478357327
 30
0.0
 11
166.1188832723
 21
281.0478357327
 31
0.0
  0
DIMENSION
  5
15C
330
1F
100
AcDbEntity
  8
0
  6
Continuous
 62
     7
370
     0
100
AcDbDimension
  2
*D6
 10
184.6188832723
 20
74.0478357327
 30
0.0
 11
172.5860689169
 21
74.0478357327
 31
0.0
 70
   160
 71
     2
 42
-1.0
  3
SLDDIMSTYLE0
100
AcDbAlignedDimension
 13
159.6188832723
 23
98.0478357327
 33
0.0
 14
184.6188832723
 24
98.0478357327
 34
0.0
100
AcDbRotatedDimension
  0
DIMENSION
  5
166
330
1F
100
AcDbEntity
  8
0
  6
Continuous
 62
     7
370
     0
100
AcDbDimension
  2
*D7
 10
235.802334007
 20
96.0478357327
 30
0.0
 11
235.802334007
 21
143.572619424
 31
0.0
 70
   160
  1
%%c<>
 71
     2
 42
-1.0
  3
SLDDIMSTYLE0
100
AcDbAlignedDimension
 13
182.6188832723
 23
196.0478357327
 33
0.0
 14
182.6188832723
 24
96.0478357327
 34
0.0
 50
90.0
100
AcDbRotatedDimension
  0
LINE
  5
171
330
1F
100
AcDbEntity
  8
0
  6
CENTERX2
 62
     7
370
     0
100
AcDbLine
 10
172.1188832723
 20
274.0478357327
 30
0.0
 11
172.1188832723
 21
221.5478357327
 31
0.0
  0
ARC
  5
172
330
1F
100
AcDbEntity
  8
0
  6
Continuous
 62
     7
370
    15
100
AcDbCircle
 10
285.8026565373
 20
364.4921951866
 30
0.0
 40
2.000000000000057
100
AcDbArc
 50
90.0
 51
180.0
  0
LINE
  5
173
330
1F
100
AcDbEntity
  8
0
  6
Continuous
 62
     7
370
    15
100
AcDbLine
 10
283.8026565373
 20
364.4921951866
 30
0.0
 11
283.8026565373
 21
343.4921951866
 31
0.0
  0
ARC
  5
174
330
1F
100
AcDbEntity
  8
0
  6
Continuous
 62
     7
370
    15
100
AcDbCircle
 10
285.8026565373
 20
343.4921951866
 30
0.0
 40
2.0
100
AcDbArc
 50
180.0
 51
270.0
  0
LINE
  5
175
330
1F
100
AcDbEntity
  8
0
  6
Continuous
 62
     7
370
    15
100
AcDbLine
 10
305.4838294978
 20
316.1446330436
 30
0.0
 11
306.4073269318
 21
316.1446330436
 31
0.0
  0
LINE
  5
176
330
1F
100
AcDbEntity
  8
0
  6
Continuous
 62
     7
370
    15
100
AcDbLine
 10
324.0526565373
 20
367.9930421587
 30
0.0
 11
324.0526565373
 21
366.4921951866
 31
0.0
  0
LINE
  5
177
330
1F
100
AcDbEntity
  8
0
  6
Continuous
 62
     7
370
    15
100
AcDbLine
 10
324.0526565373
 20
341.4921951866
 30
0.0
 11
324.0526565373
 21
339.9913482145
 31
0.0
  0
LINE
  5
178
330
1F
100
AcDbEntity
  8
0
  6
Continuous
 62
     7
370
    15
100
AcDbLine
 10
328.3026565373
 20
371.4921951866
 30
0.0
 11
328.3026565373
 21
370.9921951866
 31
0.0
  0
LINE
  5
179
330
1F
100
AcDbEntity
  8
0
  6
Continuous
 62
     7
370
    15
100
AcDbLine
 10
339.3026565373
 20
370.9921951866
 30
0.0
 11
339.3026565373
 21
371.4921951866
 31
0.0
  0
ARC
  5
17A
330
1F
100
AcDbEntity
  8
0
  6
Continuous
 62
     7
370
    15
100
AcDbCircle
 10
330.3026565373
 20
371.4921951866
 30
0.0
 40
2.0
100
AcDbArc
 50
90.0
 51
180.0
  0
ARC
  5
17B
330
1F
100
AcDbEntity
  8
0
  6
Continuous
 62
     7
370
    15
100
AcDbCircle
 10
337.3026565373
 20
371.4921951866
 30
0.0
 40
2.0
100
AcDbArc
 50
0.0
 51
90.0
  0
LINE
  5
17C
330
1F
100
AcDbEntity
  8
0
  6
Continuous
 62
     7
370
    15
100
AcDbLine
 10
324.9592726258
 20
370.9921951866
 30
0.0
 11
324.9592726258
 21
368.9921951866
 31
0.0
  0
LINE
  5
17D
330
1F
100
AcDbEntity
  8
0
  6
Continuous
 62
     7
370
    15
100
AcDbLine
 10
324.9592726258
 20
338.9921951866
 30
0.0
 11
324.9592726258
 21
336.9921951866
 31
0.0
  0
LINE
  5
17E
330
1F
100
AcDbEntity
  8
0
  6
Continuous
 62
     7
370
    15
100
AcDbLine
 10
367.7032800704
 20
315.6695323712
 30
0.0
 11
368.6267771167
 21
315.6695323712
 31
0.0
  0
CIRCLE
  5
17F
330
1F
100
AcDbEntity
  8
0
  6
Continuous
 62
     7
370
    15
100
AcDbCircle
 10
363.8026565373
 20
353.9921951866
 30
0.0
 40
5.0
  0
CIRCLE
  5
180
330
1F
100
AcDbEntity
  8
0
  6
Continuous
 62
     7
370
    15
100
AcDbCircle
 10
363.8026565373
 20
353.9921951866
 30
0.0
 40
6.0
  0
CIRCLE
  5
181
330
1F
100
AcDbEntity
  8
0
  6
Continuous
 62
     7
370
    15
100
AcDbCircle
 10
363.8026565373
 20
353.9921951866
 30
0.0
 40
11.5
  0
CIRCLE
  5
182
330
1F
100
AcDbEntity
  8
0
  6
Continuous
 62
     7
370
    15
100
AcDbCircle
 10
363.8026565373
 20
353.9921951866
 30
0.0
 40
14.25000000000006
  0
CIRCLE
  5
183
330
1F
100
AcDbEntity
  8
0
  6
Continuous
 62
     7
370
    15
100
AcDbCircle
 10
363.8026565373
 20
353.9921951866
 30
0.0
 40
21.49999999999994
  0
CIRCLE
  5
184
330
1F
100
AcDbEntity
  8
0
  6
Continuous
 62
     7
370
    15
100
AcDbCircle
 10
363.8026565373
 20
353.9921951866
 30
0.0
 40
22.07236504553578
  0
ARC
  5
185
330
1F
100
AcDbEntity
  8
0
  6
Continuous
 62
     7
370
    15
100
AcDbCircle
 10
363.8026565373
 20
353.9921951866
 30
0.0
 40
24.24004105455373
100
AcDbArc
 50
135.525406468
 51
153.501121504
  0
ARC
  5
186
330
1F
100
AcDbEntity
  8
0
  6
Continuous
 62
     7
370
    15
100
AcDbCircle
 10
363.8026565373
 20
353.9921951866
 30
0.0
 40
24.24004105455373
100
AcDbArc
 50
206.498878496
 51
224.474593532
  0
ELLIPSE
  5
187
330
1F
100
AcDbEntity
  8
0
  6
Continuous
 62
     7
370
    15
100
AcDbEllipse
 10
358.8269862301
 20
353.9921951866
 30
0.0
 11
28.2041567987622
 21
0.0
 31
0.0
210
0.0
220
0.0
230
1.0
 40
0.9843156621
 41
0.8674692534716678
 42
0.87112685103868
  0
ARC
  5
188
330
1F
100
AcDbEntity
  8
0
  6
Continuous
 62
     7
370
    15
100
AcDbCircle
 10
363.8026565373
 20
353.9921951866
 30
0.0
 40
24.98609822664454
100
AcDbArc
 50
302.0676288076
 51
57.9323711924
  0
ELLIPSE
  5
189
330
1F
100
AcDbEntity
  8
0
  6
Continuous
 62
     7
370
    15
100
AcDbEllipse
 10
358.8269862301
 20
353.9921951866
 30
0.0
 11
28.2041567987622
 21
0.0
 31
0.0
210
0.0
220
0.0
230
1.0
 40
0.9843156621
 41
5.412058456140919
 42
5.415716053707932
  0
ARC
  5
18A
330
1F
100
AcDbEntity
  8
0
  6
Continuous
 62
     7
370
    15
100
AcDbCircle
 10
363.8026565373
 20
353.9921951866
 30
0.0
 40
25.00000000000004
100
AcDbArc
 50
225.620965709
 51
301.8348481456
  0
ARC
  5
18B
330
1F
100
AcDbEntity
  8
0
  6
Continuous
 62
     7
370
    15
100
AcDbCircle
 10
363.8026565373
 20
353.9921951866
 30
0.0
 40
24.99999999999999
100
AcDbArc
 50
58.1651518544
 51
134.379034291
  0
LINE
  5
18C
330
1F
100
AcDbEntity
  8
0
  6
Continuous
 62
     7
370
    15
100
AcDbLine
 10
345.2831802076
 20
370.9921951866
 30
0.0
 11
342.1091991662
 21
370.9921951866
 31
0.0
  0
SPLINE
  5
18D
330
1F
100
AcDbEntity
  8
0
  6
Continuous
 62
     7
370
    15
100
AcDbSpline
210
0.0
220
0.0
230
1.0
 70
     8
 71
     3
 72
    10
 73
     6
 74
     0
 42
0.00000001
 43
0.00000001
 40
0.0
 40
0.0
 40
0.0
 40
0.0
 40
0.5
 40
0.5
 40
1.0
 40
1.0
 40
1.0
 40
1.0
 10
346.50590422033
 20
371.2459541909839
 30
0.0
 10
346.3121145117841
 20
371.1618022369936
 30
0.0
 10
346.1130861179508
 20
371.098987682033
 30
0.0
 10
345.7050180959679
 20
371.0141347763815
 30
0.0
 10
345.4944407436712
 20
370.99219518658
 30
0.0
 10
345.2831802075502
 20
370.99219518658
 30
0.0
  0
LINE
  5
18E
330
1F
100
AcDbEntity
  8
0
  6
Continuous
 62
     7
370
    15
100
AcDbLine
 10
346.5059042203
 20
370.9745963599
 30
0.0
 11
346.5059042203
 21
371.245954191
 31
0.0
  0
LINE
  5
18F
330
1F
100
AcDbEntity
  8
0
  6
Continuous
 62
     7
370
    15
100
AcDbLine
 10
342.1091991662
 20
364.8076238705
 30
0.0
 11
342.1091991662
 21
370.9921951866
 31
0.0
  0
SPLINE
  5
190
330
1F
100
AcDbEntity
  8
0
  6
Continuous
 62
     7
370
    15
100
AcDbSpline
210
0.0
220
0.0
230
1.0
 70
     8
 71
     3
 72
    14
 73
    10
 74
     0
 42
0.00000001
 43
0.00000001
 40
0.0
 40
0.0
 40
0.0
 40
0.0
 40
0.25
 40
0.25
 40
0.5
 40
0.5
 40
0.75
 40
0.75
 40
1.0
 40
1.0
 40
1.0
 40
1.0
 10
346.3063012316862
 20
371.8493380437228
 30
0.0
 10
346.1665514055182
 20
371.7124117374212
 30
0.0
 10
346.0158834639496
 20
371.5913257787933
 30
0.0
 10
345.6936456901851
 20
371.3794789064663
 30
0.0
 10
345.5201472557677
 20
371.2880109749136
 30
0.0
 10
345.1608329980544
 20
371.1413429577096
 30
0.0
 10
344.9762197953141
 20
371.0861319824902
 30
0.0
 10
344.5972190537902
 20
371.0114520451649
 30
0.0
 10
344.3993310781829
 20
370.99219518658
 30
0.0
 10
344.206738595015
 20
370.99219518658
 30
0.0
  0
SPLINE
  5
191
330
1F
100
AcDbEntity
  8
0
  6
Continuous
 62
     7
370
    15
100
AcDbSpline
210
0.0
220
0.0
230
1.0
 70
     8
 71
     3
 72
     8
 73
     4
 74
     0
 42
0.00000001
 43
0.00000001
 40
0.0
 40
0.0
 40
0.0
 40
0.0
 40
0.0000158335681026
 40
0.0000158335681026
 40
0.0000158335681026
 40
0.0000158335681026
 10
346.3063012316862
 20
371.8493380437228
 30
0.0
 10
346.3100654734591
 20
371.8530262323677
 30
0.0
 10
346.3138379681358
 20
371.8567201707857
 30
0.0
 10
346.3176102030701
 20
371.8604115130778
 30
0.0
  0
SPLINE
  5
192
330
1F
100
AcDbEntity
  8
0
  6
Continuous
 62
     7
370
    15
100
AcDbSpline
210
0.0
220
0.0
230
1.0
 70
    24
 71
     3
 72
    10
 73
     6
 74
     0
 42
0.00000001
 43
0.00000001
 40
0.0
 40
0.0
 40
0.0
 40
0.0
 40
0.5
 40
0.5
 40
1.0
 40
1.0
 40
1.0
 40
1.0
 10
346.5059042203328
 20
371.8497713888859
 30
0.0
 10
346.5059042203328
 20
371.7064024222758
 30
0.0
 10
346.50590422033
 20
371.5902013474355
 30
0.0
 10
346.50590422033
 20
371.3929983260273
 30
0.0
 10
346.50590422033
 20
371.3123986008866
 30
0.0
 10
346.50590422033
 20
371.2459541909839
 30
0.0
  0
ELLIPSE
  5
193
330
1F
100
AcDbEntity
  8
0
  6
Continuous
 62
     7
370
    15
100
AcDbEllipse
 10
363.2444064834
 20
353.9921951866
 30
0.0
 11
23.74310819610076
 21
0.0
 31
0.0
210
0.0
220
0.0
230
1.0
 40
0.9997235526
 41
2.668496417987122
 42
3.614688889192478
  0
LINE
  5
194
330
1F
100
AcDbEntity
  8
0
  6
Continuous
 62
     7
370
    15
100
AcDbLine
 10
342.1091991662
 20
336.9921951866
 30
0.0
 11
342.1091991662
 21
343.1767665026
 31
0.0
  0
LINE
  5
195
330
1F
100
AcDbEntity
  8
0
  6
Continuous
 62
     7
370
    15
100
AcDbLine
 10
342.1091991662
 20
336.9921951866
 30
0.0
 11
325.6218898576
 21
336.9921951866
 31
0.0
  0
LINE
  5
196
330
1F
100
AcDbEntity
  8
0
  6
Continuous
 62
     7
370
    15
100
AcDbLine
 10
325.6218898576
 20
336.9921951866
 30
0.0
 11
325.6218898576
 21
370.9921951866
 31
0.0
  0
LINE
  5
197
330
1F
100
AcDbEntity
  8
0
  6
Continuous
 62
     7
370
    15
100
AcDbLine
 10
342.1091991662
 20
370.9921951866
 30
0.0
 11
325.6218898576
 21
370.9921951866
 31
0.0
  0
SPLINE
  5
198
330
1F
100
AcDbEntity
  8
0
  6
Continuous
 62
     7
370
    15
100
AcDbSpline
210
0.0
220
0.0
230
1.0
 70
     8
 71
     3
 72
    10
 73
     6
 74
     0
 42
0.00000001
 43
0.00000001
 40
0.0
 40
0.0
 40
0.0
 40
0.0
 40
0.5
 40
0.5
 40
1.0
 40
1.0
 40
1.0
 40
1.0
 10
345.2831802075502
 20
336.99219518658
 30
0.0
 10
345.4944373039716
 20
336.99219518658
 30
0.0
 10
345.7020329623069
 20
336.9706664542869
 30
0.0
 10
346.1101839763101
 20
336.8862130169068
 30
0.0
 10
346.3121206723682
 20
336.8225854609717
 30
0.0
 10
346.50590422033
 20
336.738436182176
 30
0.0
  0
LINE
  5
199
330
1F
100
AcDbEntity
  8
0
  6
Continuous
 62
     7
370
    15
100
AcDbLine
 10
345.2831802076
 20
336.9921951866
 30
0.0
 11
342.1091991662
 21
336.9921951866
 31
0.0
  0
LINE
  5
19A
330
1F
100
AcDbEntity
  8
0
  6
Continuous
 62
     7
370
    15
100
AcDbLine
 10
346.5059042203
 20
336.7384361822
 30
0.0
 11
346.5059042203
 21
337.0097940132
 31
0.0
  0
SPLINE
  5
19B
330
1F
100
AcDbEntity
  8
0
  6
Continuous
 62
     7
370
    15
100
AcDbSpline
210
0.0
220
0.0
230
1.0
 70
    24
 71
     3
 72
    10
 73
     6
 74
     0
 42
0.00000001
 43
0.00000001
 40
0.0
 40
0.0
 40
0.0
 40
0.0
 40
0.5
 40
0.5
 40
1.0
 40
1.0
 40
1.0
 40
1.0
 10
346.50590422033
 20
336.738436182176
 30
0.0
 10
346.50590422033
 20
336.6719968596497
 30
0.0
 10
346.50590422033
 20
336.5914406370225
 30
0.0
 10
346.50590422033
 20
336.3942457014626
 30
0.0
 10
346.50590422033
 20
336.2779636203925
 30
0.0
 10
346.50590422033
 20
336.1346189842783
 30
0.0
  0
SPLINE
  5
19C
330
1F
100
AcDbEntity
  8
0
  6
Continuous
 62
     7
370
    15
100
AcDbSpline
210
0.0
220
0.0
230
1.0
 70
     8
 71
     3
 72
     8
 73
     4
 74
     0
 42
0.00000001
 43
0.00000001
 40
0.0
 40
0.0
 40
0.0
 40
0.0
 40
0.0000158335681026
 40
0.0000158335681026
 40
0.0000158335681026
 40
0.0000158335681026
 10
346.3176102030701
 20
336.1239788600822
 30
0.0
 10
346.3138379681358
 20
336.1276702023742
 30
0.0
 10
346.3100654734591
 20
336.1313641407922
 30
0.0
 10
346.3063012316862
 20
336.1350523294371
 30
0.0
  0
SPLINE
  5
19D
330
1F
100
AcDbEntity
  8
0
  6
Continuous
 62
     7
370
    15
100
AcDbSpline
210
0.0
220
0.0
230
1.0
 70
     8
 71
     3
 72
    14
 73
    10
 74
     0
 42
0.00000001
 43
0.00000001
 40
0.0
 40
0.0
 40
0.0
 40
0.0
 40
0.4999999999999998
 40
0.4999999999999998
 40
0.7500000000000006
 40
0.7500000000000006
 40
0.8750000000000002
 40
0.8750000000000002
 40
1.0
 40
1.0
 40
1.0
 40
1.0
 10
346.3063012316862
 20
336.1350523294371
 30
0.0
 10
346.0257342116728
 20
336.4099507445115
 30
0.0
 10
345.7037912231514
 20
336.621394201983
 30
0.0
 10
345.1590736262594
 20
336.8437774660813
 30
0.0
 10
344.9734615066266
 20
336.8989566871836
 30
0.0
 10
344.6898465266705
 20
336.9546077739008
 30
0.0
 10
344.5944045061206
 20
336.9686173022962
 30
0.0
 10
344.4016861774612
 20
336.9874195370514
 30
0.0
 10
344.3029472766168
 20
336.99219518658
 30
0.0
 10
344.2067385950148
 20
336.99219518658
 30
0.0
  0
LINE
  5
19E
330
1F
100
AcDbEntity
  8
0
  6
Continuous
 62
     7
370
    15
100
AcDbLine
 10
325.5906782672
 20
338.9921951866
 30
0.0
 11
325.5906782672
 21
368.9921951866
 31
0.0
  0
LINE
  5
19F
330
1F
100
AcDbEntity
  8
0
  6
Continuous
 62
     7
370
    15
100
AcDbLine
 10
325.5906782672
 20
368.9921951866
 30
0.0
 11
324.9598405973
 21
368.9921951866
 31
0.0
  0
LINE
  5
1A0
330
1F
100
AcDbEntity
  8
0
  6
Continuous
 62
     7
370
    15
100
AcDbLine
 10
324.9598405973
 20
338.9921951866
 30
0.0
 11
325.5906782672
 21
338.9921951866
 31
0.0
  0
LINE
  5
1A1
330
1F
100
AcDbEntity
  8
0
  6
Continuous
 62
     7
370
    15
100
AcDbLine
 10
325.6218898576
 20
336.9921951866
 30
0.0
 11
325.1296914291
 21
336.9921951866
 31
0.0
  0
LINE
  5
1A2
330
1F
100
AcDbEntity
  8
0
  6
Continuous
 62
     7
370
    15
100
AcDbLine
 10
325.6218898576
 20
370.9921951866
 30
0.0
 11
324.9598405973
 21
370.9921951866
 31
0.0
  0
LINE
  5
1A3
330
1F
100
AcDbEntity
  8
0
  6
Continuous
 62
     7
370
    15
100
AcDbLine
 10
285.8026565373
 20
366.4921951866
 30
0.0
 11
325.5906782672
 21
366.4921951866
 31
0.0
  0
LINE
  5
1A4
330
1F
100
AcDbEntity
  8
0
  6
Continuous
 62
     7
370
    15
100
AcDbLine
 10
285.8026565373
 20
341.4921951866
 30
0.0
 11
325.5906782672
 21
341.4921951866
 31
0.0
  0
LINE
  5
1A5
330
1F
100
AcDbEntity
  8
0
  6
Continuous
 62
     7
370
    15
100
AcDbLine
 10
317.7770794384
 20
328.0153676424
 30
0.0
 11
325.4689949467
 21
328.0153676345
 31
0.0
  0
LWPOLYLINE
  5
1A6
330
1F
100
AcDbEntity
  8
0
  6
Continuous
 62
     7
370
    15
100
AcDbPolyline
 90
       24
 70
   128
 43
0.0
 10
295.0040460851
 20
329.0004838661
 10
295.1051414114
 20
327.2924292385
 10
295.4066348773
 20
325.6146599897
 10
295.9031807264
 20
323.9969245109
 10
296.5859747444
 20
322.4679067393
 10
297.4429103656
 20
321.0547175656
 10
298.4587933337
 20
319.7824141332
 10
299.6156111096
 20
318.6735555514
 10
300.8928522509
 20
317.7478029024
 10
302.2678700978
 20
317.0215706316
 10
303.7162843198
 20
316.5077355049
 10
305.2124132012
 20
316.2154082914
 10
306.7297290016
 20
316.1497722214
 10
308.2413283169
 20
316.3119910828
 10
309.7204091016
 20
316.6991885859
 10
311.1407458937
 20
317.3044993631
 10
312.4771548161
 20
318.1171906979
 10
313.70594011
 20
319.1228528257
 10
314.8053142825
 20
320.3036544326
 10
315.7557844188
 20
321.6386588204
 10
316.5404978098
 20
323.1041951342
 10
317.1455407654
 20
324.6742780677
 10
317.560185318
 20
326.3210686072
 10
317.7770794384
 20
328.0153676424
  0
LINE
  5
1A7
330
1F
100
AcDbEntity
  8
0
  6
Continuous
 62
     7
370
    15
100
AcDbLine
 10
295.0040407055
 20
329.0004838661
 30
0.0
 11
295.0040407055
 21
330.9922013222
 31
0.0
  0
ARC
  5
1A8
330
1F
100
AcDbEntity
  8
0
  6
Continuous
 62
     7
370
    15
100
AcDbCircle
 10
301.4520281837
 20
331.0371412954
 30
0.0
 40
6.44814408338593
100
AcDbArc
 50
142.1669209476
 51
180.3993229074
  0
LINE
  5
1A9
330
1F
100
AcDbEntity
  8
0
  6
Continuous
 62
     7
370
    15
100
AcDbLine
 10
294.0805438106
 20
329.0004838661
 30
0.0
 11
294.0805438106
 21
330.9922013222
 31
0.0
  0
LWPOLYLINE
  5
1AA
330
1F
100
AcDbEntity
  8
0
  6
Continuous
 62
     7
370
    15
100
AcDbPolyline
 90
       13
 70
   128
 43
0.0
 10
305.4838294978
 20
316.1446330436
 10
304.2889132056
 20
316.2154085957
 10
302.7927841741
 20
316.5077362473
 10
301.3443698636
 20
317.0215718615
 10
299.9693519986
 20
317.7478046578
 10
298.6921109168
 20
318.6735578575
 10
297.5352932832
 20
319.7824170007
 10
296.5194105436
 20
321.0547209899
 10
295.662475238
 20
322.4679106993
 10
294.9796816216
 20
323.9969289692
 10
294.4831362561
 20
325.6146648922
 10
294.18164335
 20
327.2924345152
 10
294.0805486511
 20
329.000489432
  0
ARC
  5
1AB
330
1F
100
AcDbEntity
  8
0
  6
Continuous
 62
     7
370
    15
100
AcDbCircle
 10
300.4014878194
 20
331.9087490855
 30
0.0
 40
5.084004835267405
100
AcDbArc
 50
90.8494567404
 51
142.6631819716
  0
ARC
  5
1AC
330
1F
100
AcDbEntity
  8
0
  6
Continuous
 62
     7
370
    15
100
AcDbCircle
 10
300.5284635925
 20
331.0371747526
 30
0.0
 40
6.448071016727401
100
AcDbArc
 50
142.16679315
 51
180.3996247312
  0
ARC
  5
1AD
330
1F
100
AcDbEntity
  8
0
  6
Continuous
 62
     7
370
    15
100
AcDbCircle
 10
299.4779670907
 20
331.9087940084
 30
0.0
 40
5.083959567296562
100
AcDbArc
 50
90.8491981747
 51
142.6634295701
  0
LINE
  5
1AE
330
1F
100
AcDbEntity
  8
0
  6
Continuous
 62
     7
370
    15
100
AcDbLine
 10
300.3261160554
 20
336.9921951866
 30
0.0
 11
299.4026189384
 21
336.9921951866
 31
0.0
  0
LINE
  5
1AF
330
1F
100
AcDbEntity
  8
0
  6
Continuous
 62
     7
370
    15
100
AcDbLine
 10
325.1296914291
 20
336.9921951866
 30
0.0
 11
300.3261160554
 21
336.9921951866
 31
0.0
  0
LINE
  5
1B0
330
1F
100
AcDbEntity
  8
0
  6
Continuous
 62
     7
370
    15
100
AcDbLine
 10
330.6789938139
 20
328.0153676548
 30
0.0
 11
346.4939876328
 21
328.0153676713
 31
0.0
  0
LINE
  5
1B1
330
1F
100
AcDbEntity
  8
0
  6
Continuous
 62
     7
370
    15
100
AcDbLine
 10
326.5364511346
 20
328.0153676515
 30
0.0
 11
330.6789938139
 21
328.0153676548
 31
0.0
  0
LWPOLYLINE
  5
1B2
330
1F
100
AcDbEntity
  8
0
  6
Continuous
 62
     7
370
    15
100
AcDbPolyline
 90
        9
 70
   128
 43
0.0
 10
325.4689949467
 20
328.0153676345
 10
325.5935045373
 20
328.0153676347
 10
325.7218166948
 20
328.0153676349
 10
325.8533207503
 20
328.0153676353
 10
325.9873908441
 20
328.0153676356
 10
326.1233889037
 20
328.0153676361
 10
326.2606676814
 20
328.0153676366
 10
326.3985738339
 20
328.0153676372
 10
326.5364511346
 20
328.0153676515
  0
LINE
  5
1B3
330
1F
100
AcDbEntity
  8
0
  6
Continuous
 62
     7
370
    15
100
AcDbLine
 10
324.0526565373
 20
367.9930421587
 30
0.0
 11
325.5906782672
 21
367.9930421587
 31
0.0
  0
LINE
  5
1B4
330
1F
100
AcDbEntity
  8
0
  6
Continuous
 62
     7
370
    15
100
AcDbLine
 10
324.0526565373
 20
339.9913482145
 30
0.0
 11
325.5906782672
 21
339.9913482145
 31
0.0
  0
LINE
  5
1B5
330
1F
100
AcDbEntity
  8
0
  6
Continuous
 62
     7
370
    15
100
AcDbLine
 10
333.8026565373
 20
373.4921951866
 30
0.0
 11
337.3026565373
 21
373.4921951866
 31
0.0
  0
LINE
  5
1B6
330
1F
100
AcDbEntity
  8
0
  6
Continuous
 62
     7
370
    15
100
AcDbLine
 10
330.3026565373
 20
373.4921951866
 30
0.0
 11
333.8026565373
 21
373.4921951866
 31
0.0
  0
LINE
  5
1B7
330
1F
100
AcDbEntity
  8
0
  6
Continuous
 62
     7
370
    15
100
AcDbLine
 10
346.4939876328
 20
328.0153676713
 30
0.0
 11
348.6251549168
 21
328.0153676746
 31
0.0
  0
LINE
  5
1B8
330
1F
100
AcDbEntity
  8
0
  6
Continuous
 62
     7
370
    15
100
AcDbLine
 10
348.6251549168
 20
328.0153676746
 30
0.0
 11
349.418284444
 21
328.0153676756
 31
0.0
  0
ARC
  5
1B9
330
1F
100
AcDbEntity
  8
0
  6
Continuous
 62
     7
370
    15
100
AcDbCircle
 10
373.4436985827
 20
331.0154939626
 30
0.0
 40
6.558991447518426
100
AcDbArc
 50
359.7964741454
 51
29.720356569
  0
LINE
  5
1BA
330
1F
100
AcDbEntity
  8
0
  6
Continuous
 62
     7
370
    15
100
AcDbLine
 10
380.0026493058
 20
328.0153676838
 30
0.0
 11
380.0026486492
 21
330.9921951866
 31
0.0
  0
LWPOLYLINE
  5
1BB
330
1F
100
AcDbEntity
  8
0
  6
Continuous
 62
     7
370
    15
100
AcDbPolyline
 90
       24
 70
   128
 43
0.0
 10
357.2509055842
 20
328.0153676838
 10
357.4093659209
 20
326.3154328902
 10
357.7667956221
 20
324.6543140329
 10
358.3168547616
 20
323.0614752868
 10
359.0497866391
 20
321.5651697048
 10
359.9525908407
 20
320.1919380783
 10
361.0092538339
 20
318.9661381687
 10
362.2010330085
 20
317.90951266
 10
363.5067891249
 20
317.0408034976
 10
364.9033612718
 20
316.3754194515
 10
366.3659776842
 20
315.9251628029
 10
367.8686951342
 20
315.6980200004
 10
369.3848590993
 20
315.6980200004
 10
370.8875765492
 20
315.9251628029
 10
372.3501929617
 20
316.3754194515
 10
373.7467651085
 20
317.0408034976
 10
375.0525212249
 20
317.90951266
 10
376.2443003996
 20
318.9661381687
 10
377.3009633927
 20
320.1919380783
 10
378.2037675943
 20
321.5651697048
 10
378.9366994718
 20
323.0614752868
 10
379.4867586113
 20
324.6543140329
 10
379.8441883125
 20
326.3154328902
 10
380.0026493058
 20
328.0153676838
  0
LINE
  5
1BC
330
1F
100
AcDbEntity
  8
0
  6
Continuous
 62
     7
370
    15
100
AcDbLine
 10
349.418284444
 20
328.0153676756
 30
0.0
 11
357.2509055842
 21
328.0153676838
 31
0.0
  0
LWPOLYLINE
  5
1BD
330
1F
100
AcDbEntity
  8
0
  6
Continuous
 62
     7
370
    15
100
AcDbPolyline
 90
       13
 70
   128
 43
0.0
 10
367.7032800704
 20
315.6695323712
 10
366.9451669755
 20
315.6980223431
 10
365.4424529327
 20
315.925169154
 10
363.979840269
 20
316.3754288654
 10
362.5832720493
 20
317.0408150041
 10
361.2775198763
 20
317.9095252959
 10
360.0857445047
 20
318.9661510081
 10
359.0290850281
 20
320.1919502621
 10
358.1262839241
 20
321.5651804662
 10
357.3933546104
 20
323.0614839756
 10
356.8432974071
 20
324.6543201345
 10
356.4858689436
 20
326.3154360414
 10
356.32740869
 20
328.0153676838
  0
INSERT
  5
1C9
330
1F
100
AcDbEntity
  8
0
  6
Continuous
 62
     7
370
     0
100
AcDbBlockReference
  2
SW_CENTERMARKSYMBOL_1
 10
363.8026565373
 20
353.9921951866
 30
0.0
  0
ENDSEC
  0
SECTION
  2
OBJECTS
  0
DICTIONARY
  5
C
330
0
100
AcDbDictionary
281
     1
  3
ACAD_GROUP
350
D
  3
ACAD_LAYOUT
350
1A
  3
ACAD_MLINESTYLE
350
17
  3
ACAD_PLOTSETTINGS
350
19
  3
ACAD_PLOTSTYLENAME
350
E
  0
DICTIONARY
  5
D
102
{ACAD_REACTORS
330
C
102
}
330
C
100
AcDbDictionary
281
     1
  0
DICTIONARY
  5
1A
102
{ACAD_REACTORS
330
C
102
}
330
C
100
AcDbDictionary
281
     1
  3
Layout1
350
1E
  3
Layout2
350
26
  3
Model
350
22
  0
DICTIONARY
  5
17
102
{ACAD_REACTORS
330
C
102
}
330
C
100
AcDbDictionary
281
     1
  3
Standard
350
18
  0
DICTIONARY
  5
19
102
{ACAD_REACTORS
330
C
102
}
330
C
100
AcDbDictionary
281
     1
  0
ACDBDICTIONARYWDFLT
  5
E
102
{ACAD_REACTORS
330
C
102
}
330
C
100
AcDbDictionary
281
     1
  3
Normal
350
F
100
AcDbDictionaryWithDefault
340
F
  0
LAYOUT
  5
1E
102
{ACAD_REACTORS
330
1A
102
}
330
1A
100
AcDbPlotSettings
  1

  2
none_device
  4

  6

 40
0.0
 41
0.0
 42
0.0
 43
0.0
 44
0.0
 45
0.0
 46
0.0
 47
0.0
 48
0.0
 49
0.0
140
0.0
141
0.0
142
1.0
143
1.0
 70
   688
 72
     0
 73
     0
 74
     5
  7

 75
    16
147
1.0
148
0.0
149
0.0
100
AcDbLayout
  1
Layout1
 70
     1
 71
     1
 10
0.0
 20
0.0
 11
420.0
 21
297.0
 12
0.0
 22
0.0
 32
0.0
 14
1.0000000000E+20
 24
1.0000000000E+20
 34
1.0000000000E+20
 15
-1.0000000000E+20
 25
-1.0000000000E+20
 35
-1.0000000000E+20
146
0.0
 13
0.0
 23
0.0
 33
0.0
 16
1.0
 26
0.0
 36
0.0
 17
0.0
 27
1.0
 37
0.0
 76
     0
330
1B
  0
LAYOUT
  5
26
102
{ACAD_REACTORS
330
1A
102
}
330
1A
100
AcDbPlotSettings
  1

  2
none_device
  4

  6

 40
0.0
 41
0.0
 42
0.0
 43
0.0
 44
0.0
 45
0.0
 46
0.0
 47
0.0
 48
0.0
 49
0.0
140
0.0
141
0.0
142
1.0
143
1.0
 70
   688
 72
     0
 73
     0
 74
     5
  7

 75
    16
147
1.0
148
0.0
149
0.0
100
AcDbLayout
  1
Layout2
 70
     1
 71
     2
 10
0.0
 20
0.0
 11
0.0
 21
0.0
 12
0.0
 22
0.0
 32
0.0
 14
0.0
 24
0.0
 34
0.0
 15
0.0
 25
0.0
 35
0.0
146
0.0
 13
0.0
 23
0.0
 33
0.0
 16
1.0
 26
0.0
 36
0.0
 17
0.0
 27
1.0
 37
0.0
 76
     0
330
23
  0
LAYOUT
  5
22
102
{ACAD_REACTORS
330
1A
102
}
330
1A
100
AcDbPlotSettings
  1

  2
none_device
  4

  6

 40
0.0
 41
0.0
 42
0.0
 43
0.0
 44
0.0
 45
0.0
 46
0.0
 47
0.0
 48
0.0
 49
0.0
140
0.0
141
0.0
142
1.0
143
1.0
 70
  1712
 72
     0
 73
     0
 74
     0
  7

 75
     0
147
1.0
148
0.0
149
0.0
100
AcDbLayout
  1
Model
 70
     1
 71
     0
 10
0.0
 20
0.0
 11
594.0
 21
420.0
 12
0.0
 22
0.0
 32
0.0
 14
0.0
 24
0.0
 34
0.0
 15
594.0
 25
420.0
 35
0.0
146
0.0
 13
0.0
 23
0.0
 33
0.0
 16
1.0
 26
0.0
 36
0.0
 17
0.0
 27
1.0
 37
0.0
 76
     0
330
1F
331
29
  0
MLINESTYLE
  5
18
102
{ACAD_REACTORS
330
17
102
}
330
17
100
AcDbMlineStyle
  2
Standard
 70
     0
  3

 62
   256
 51
90.0
 52
90.0
 71
     2
 49
0.5
 62
   256
  6
BYLAYER
 49
-0.5
 62
   256
  6
BYLAYER
  0
ACDBPLACEHOLDER
  5
F
102
{ACAD_REACTORS
330
E
102
}
330
E
  0
ENDSEC
  0
EOF
